  0
SECTION
  2
HEADER
  9
$ACADVER
  1
AC1015
  9
$ACADMAINTVER
 70
    20
  9
$DWGCODEPAGE
  3
ANSI_932
  9
$INSBASE
 10
0.0
 20
0.0
 30
0.0
  9
$EXTMIN
 10
-256.6797089961947
 20
9.828199317944381
 30
-0.0015258207003583
  9
$EXTMAX
 10
7900.106119302465
 20
5500.131238624606
 30
0.0000000349246037
  9
$LIMMIN
 10
0.0
 20
0.0
  9
$LIMMAX
 10
8700.0
 20
5700.0
  9
$ORTHOMODE
 70
     0
  9
$REGENMODE
 70
     1
  9
$FILLMODE
 70
     1
  9
$QTEXTMODE
 70
     0
  9
$MIRRTEXT
 70
     1
  9
$LTSCALE
 40
1.0
  9
$ATTMODE
 70
     1
  9
$TEXTSIZE
 40
65.1960991525536
  9
$TRACEWID
 40
1.0
  9
$TEXTSTYLE
  7
ｽﾀｲﾙ1
  9
$CLAYER
  8
DIMS
  9
$CELTYPE
  6
ByLayer
  9
$CECOLOR
 62
   256
  9
$CELTSCALE
 40
1.0
  9
$DISPSILH
 70
     0
  9
$DIMSCALE
 40
20.0
  9
$DIMASZ
 40
3.0
  9
$DIMEXO
 40
0.99
  9
$DIMDLI
 40
6.0
  9
$DIMRND
 40
0.0
  9
$DIMDLE
 40
0.0
  9
$DIMEXE
 40
2.0
  9
$DIMTP
 40
0.0
  9
$DIMTM
 40
0.0
  9
$DIMTXT
 40
3.5
  9
$DIMCEN
 40
0.09
  9
$DIMTSZ
 40
0.0
  9
$DIMTOL
 70
     0
  9
$DIMLIM
 70
     0
  9
$DIMTIH
 70
     0
  9
$DIMTOH
 70
     0
  9
$DIMSE1
 70
     0
  9
$DIMSE2
 70
     0
  9
$DIMTAD
 70
     3
  9
$DIMZIN
 70
     8
  9
$DIMBLK
  1

  9
$DIMASO
 70
     1
  9
$DIMSHO
 70
     1
  9
$DIMPOST
  1

  9
$DIMAPOST
  1

  9
$DIMALT
 70
     0
  9
$DIMALTD
 70
     2
  9
$DIMALTF
 40
25.4
  9
$DIMLFAC
 40
1.0
  9
$DIMTOFL
 70
     1
  9
$DIMTVP
 40
0.0
  9
$DIMTIX
 70
     0
  9
$DIMSOXD
 70
     0
  9
$DIMSAH
 70
     0
  9
$DIMBLK1
  1

  9
$DIMBLK2
  1

  9
$DIMSTYLE
  2
STANDARD
  9
$DIMCLRD
 70
     4
  9
$DIMCLRE
 70
     4
  9
$DIMCLRT
 70
     8
  9
$DIMTFAC
 40
1.0
  9
$DIMGAP
 40
0.9
  9
$DIMJUST
 70
     0
  9
$DIMSD1
 70
     0
  9
$DIMSD2
 70
     0
  9
$DIMTOLJ
 70
     1
  9
$DIMTZIN
 70
     8
  9
$DIMALTZ
 70
     0
  9
$DIMALTTZ
 70
     0
  9
$DIMUPT
 70
     0
  9
$DIMDEC
 70
     2
  9
$DIMTDEC
 70
     4
  9
$DIMALTU
 70
     2
  9
$DIMALTTD
 70
     2
  9
$DIMTXSTY
  7
Standard
  9
$DIMAUNIT
 70
     0
  9
$DIMADEC
 70
     0
  9
$DIMALTRND
 40
0.0
  9
$DIMAZIN
 70
     0
  9
$DIMDSEP
 70
    46
  9
$DIMATFIT
 70
     3
  9
$DIMFRAC
 70
     0
  9
$DIMLDRBLK
  1

  9
$DIMLUNIT
 70
     2
  9
$DIMLWD
 70
    -2
  9
$DIMLWE
 70
    -2
  9
$DIMTMOVE
 70
     0
  9
$LUNITS
 70
     2
  9
$LUPREC
 70
     4
  9
$SKETCHINC
 40
1.0
  9
$FILLETRAD
 40
5.0
  9
$AUNITS
 70
     0
  9
$AUPREC
 70
     0
  9
$MENU
  1
.
  9
$ELEVATION
 40
0.0
  9
$PELEVATION
 40
0.0
  9
$THICKNESS
 40
0.0
  9
$LIMCHECK
 70
     0
  9
$CHAMFERA
 40
10.0
  9
$CHAMFERB
 40
10.0
  9
$CHAMFERC
 40
20.0
  9
$CHAMFERD
 40
0.0
  9
$SKPOLY
 70
     0
  9
$TDCREATE
 40
2452185.592319213
  9
$TDUCREATE
 40
2452185.217319213
  9
$TDUPDATE
 40
2457240.786773067
  9
$TDUUPDATE
 40
2457240.411773067
  9
$TDINDWG
 40
3.1110801157
  9
$TDUSRTIMER
 40
3.1110801157
  9
$USRTIMER
 70
     1
  9
$ANGBASE
 50
0.0
  9
$ANGDIR
 70
     0
  9
$PDMODE
 70
     0
  9
$PDSIZE
 40
0.0
  9
$PLINEWID
 40
0.0
  9
$SPLFRAME
 70
     0
  9
$SPLINETYPE
 70
     6
  9
$SPLINESEGS
 70
     8
  9
$HANDSEED
  5
99E1
  9
$SURFTAB1
 70
     6
  9
$SURFTAB2
 70
     6
  9
$SURFTYPE
 70
     6
  9
$SURFU
 70
     6
  9
$SURFV
 70
     6
  9
$UCSBASE
  2

  9
$UCSNAME
  2

  9
$UCSORG
 10
0.0
 20
0.0
 30
0.0
  9
$UCSXDIR
 10
1.0
 20
0.0
 30
0.0
  9
$UCSYDIR
 10
0.0
 20
1.0
 30
0.0
  9
$UCSORTHOREF
  2

  9
$UCSORTHOVIEW
 70
     0
  9
$UCSORGTOP
 10
0.0
 20
0.0
 30
0.0
  9
$UCSORGBOTTOM
 10
0.0
 20
0.0
 30
0.0
  9
$UCSORGLEFT
 10
0.0
 20
0.0
 30
0.0
  9
$UCSORGRIGHT
 10
0.0
 20
0.0
 30
0.0
  9
$UCSORGFRONT
 10
0.0
 20
0.0
 30
0.0
  9
$UCSORGBACK
 10
0.0
 20
0.0
 30
0.0
  9
$PUCSBASE
  2

  9
$PUCSNAME
  2

  9
$PUCSORG
 10
0.0
 20
0.0
 30
0.0
  9
$PUCSXDIR
 10
1.0
 20
0.0
 30
0.0
  9
$PUCSYDIR
 10
0.0
 20
1.0
 30
0.0
  9
$PUCSORTHOREF
  2

  9
$PUCSORTHOVIEW
 70
     0
  9
$PUCSORGTOP
 10
0.0
 20
0.0
 30
0.0
  9
$PUCSORGBOTTOM
 10
0.0
 20
0.0
 30
0.0
  9
$PUCSORGLEFT
 10
0.0
 20
0.0
 30
0.0
  9
$PUCSORGRIGHT
 10
0.0
 20
0.0
 30
0.0
  9
$PUCSORGFRONT
 10
0.0
 20
0.0
 30
0.0
  9
$PUCSORGBACK
 10
0.0
 20
0.0
 30
0.0
  9
$USERI1
 70
     0
  9
$USERI2
 70
     0
  9
$USERI3
 70
     0
  9
$USERI4
 70
     0
  9
$USERI5
 70
     0
  9
$USERR1
 40
0.0
  9
$USERR2
 40
0.0
  9
$USERR3
 40
0.0
  9
$USERR4
 40
0.0
  9
$USERR5
 40
0.0
  9
$WORLDVIEW
 70
     1
  9
$SHADEDGE
 70
     3
  9
$SHADEDIF
 70
    70
  9
$TILEMODE
 70
     1
  9
$MAXACTVP
 70
    64
  9
$PINSBASE
 10
0.0
 20
0.0
 30
0.0
  9
$PLIMCHECK
 70
     0
  9
$PEXTMIN
 10
1.000000000000000E+20
 20
1.000000000000000E+20
 30
1.000000000000000E+20
  9
$PEXTMAX
 10
-1.000000000000000E+20
 20
-1.000000000000000E+20
 30
-1.000000000000000E+20
  9
$PLIMMIN
 10
0.0
 20
0.0
  9
$PLIMMAX
 10
420.0
 20
297.0
  9
$UNITMODE
 70
     0
  9
$VISRETAIN
 70
     1
  9
$PLINEGEN
 70
     0
  9
$PSLTSCALE
 70
     1
  9
$TREEDEPTH
 70
  3020
  9
$CMLSTYLE
  2
Standard
  9
$CMLJUST
 70
     0
  9
$CMLSCALE
 40
20.0
  9
$PROXYGRAPHICS
 70
     1
  9
$MEASUREMENT
 70
     1
  9
$CELWEIGHT
370
    -1
  9
$ENDCAPS
280
     0
  9
$JOINSTYLE
280
     0
  9
$LWDISPLAY
290
     0
  9
$INSUNITS
 70
     4
  9
$HYPERLINKBASE
  1

  9
$STYLESHEET
  1
XEROX A3.ctb
  9
$XEDIT
290
     1
  9
$CEPSNTYPE
380
     0
  9
$PSTYLEMODE
290
     1
  9
$FINGERPRINTGUID
  2
{7C8AEE02-B73F-11D5-A834-0040266CF6E9}
  9
$VERSIONGUID
  2
{4792B796-30E6-43D5-95A6-1CD1A5035C5C}
  9
$EXTNAMES
290
     1
  9
$PSVPSCALE
 40
0.0
  9
$OLESTARTUP
290
     0
  0
ENDSEC
  0
SECTION
  2
CLASSES
  0
CLASS
  1
ACDBDICTIONARYWDFLT
  2
AcDbDictionaryWithDefault
  3
ObjectDBX Classes
 90
        0
280
     0
281
     0
  0
CLASS
  1
ACDBPLACEHOLDER
  2
AcDbPlaceHolder
  3
ObjectDBX Classes
 90
        0
280
     0
281
     0
  0
CLASS
  1
LAYOUT
  2
AcDbLayout
  3
ObjectDBX Classes
 90
        0
280
     0
281
     0
  0
CLASS
  1
TABLESTYLE
  2
AcDbTableStyle
  3
ObjectDBX Classes
 90
     4095
280
     0
281
     0
  0
CLASS
  1
DICTIONARYVAR
  2
AcDbDictionaryVar
  3
ObjectDBX Classes
 90
        0
280
     0
281
     0
  0
CLASS
  1
SORTENTSTABLE
  2
AcDbSortentsTable
  3
ObjectDBX Classes
 90
        0
280
     0
281
     0
  0
CLASS
  1
MATERIAL
  2
AcDbMaterial
  3
ObjectDBX Classes
 90
     1153
280
     0
281
     0
  0
CLASS
  1
VISUALSTYLE
  2
AcDbVisualStyle
  3
ObjectDBX Classes
 90
     4095
280
     0
281
     0
  0
CLASS
  1
SCALE
  2
AcDbScale
  3
ObjectDBX Classes
 90
     1153
280
     0
281
     0
  0
CLASS
  1
MLEADERSTYLE
  2
AcDbMLeaderStyle
  3
ACDB_MLEADERSTYLE_CLASS
 90
     4095
280
     0
281
     0
  0
CLASS
  1
ACDBSECTIONVIEWSTYLE
  2
AcDbSectionViewStyle
  3
ObjectDBX Classes
 90
     1025
280
     0
281
     0
  0
CLASS
  1
ACDBDETAILVIEWSTYLE
  2
AcDbDetailViewStyle
  3
ObjectDBX Classes
 90
     1025
280
     0
281
     0
  0
CLASS
  1
CELLSTYLEMAP
  2
AcDbCellStyleMap
  3
ObjectDBX Classes
 90
     1152
280
     0
281
     0
  0
ENDSEC
  0
SECTION
  2
TABLES
  0
TABLE
  2
VPORT
  5
8
330
0
100
AcDbSymbolTable
 70
     1
  0
VPORT
  5
98C7
330
8
100
AcDbSymbolTableRecord
100
AcDbViewportTableRecord
  2
*Active
 70
     0
 10
0.0
 20
0.0
 11
1.0
 21
1.0
 12
5425.142399741042
 22
2575.925474337197
 13
0.0
 23
0.0
 14
10.0
 24
10.0
 15
50.0
 25
50.0
 16
0.0
 26
0.0
 36
1.0
 17
0.0
 27
0.0
 37
0.0
 40
8861.946932227402
 41
1.620498614958448
 42
50.0
 43
0.0
 44
0.0
 50
0.0
 51
0.0
 71
     0
 72
   100
 73
     1
 74
     3
 75
     0
 76
     0
 77
     0
 78
     0
281
     0
 65
     1
110
0.0
120
0.0
130
0.0
111
1.0
121
0.0
131
0.0
112
0.0
122
1.0
132
0.0
 79
     0
146
0.0
1001
ACAD_NAV_VCDISPLAY
1070
     3
  0
ENDTAB
  0
TABLE
  2
LTYPE
  5
5
330
0
100
AcDbSymbolTable
 70
     4
  0
LTYPE
  5
14
330
5
100
AcDbSymbolTableRecord
100
AcDbLinetypeTableRecord
  2
ByBlock
 70
     0
  3

 72
    65
 73
     0
 40
0.0
  0
LTYPE
  5
15
330
5
100
AcDbSymbolTableRecord
100
AcDbLinetypeTableRecord
  2
ByLayer
 70
     0
  3

 72
    65
 73
     0
 40
0.0
  0
LTYPE
  5
16
330
5
100
AcDbSymbolTableRecord
100
AcDbLinetypeTableRecord
  2
Continuous
 70
     0
  3
Solid line
 72
    65
 73
     0
 40
0.0
  0
LTYPE
  5
E84
330
5
100
AcDbSymbolTableRecord
100
AcDbLinetypeTableRecord
  2
DASHED
 70
     0
  3
Dashed __ __ __ __ __ __ __ __ __ __ __ __ __ _
 72
    65
 73
     2
 40
19.05
 49
12.7
 74
     0
 49
-6.349999999999999
 74
     0
  0
LTYPE
  5
1EAB
330
5
100
AcDbSymbolTableRecord
100
AcDbLinetypeTableRecord
  2
CENTER
 70
     0
  3
Center ____ _ ____ _ ____ _ ____ _ ____ _ ____
 72
    65
 73
     4
 40
50.8
 49
31.75
 74
     0
 49
-6.349999999999999
 74
     0
 49
6.349999999999999
 74
     0
 49
-6.349999999999999
 74
     0
  0
LTYPE
  5
1EE7
330
5
100
AcDbSymbolTableRecord
100
AcDbLinetypeTableRecord
  2
CENTERX2
 70
     0
  3
Center (2x) ________  __  ________  __  _____
 72
    65
 73
     4
 40
101.6
 49
63.5
 74
     0
 49
-12.7
 74
     0
 49
12.7
 74
     0
 49
-12.7
 74
     0
  0
ENDTAB
  0
TABLE
  2
LAYER
  5
2
102
{ACAD_XDICTIONARY
360
9933
102
}
330
0
100
AcDbSymbolTable
 70
     9
  0
LAYER
  5
10
102
{ACAD_XDICTIONARY
360
991C
102
}
330
2
100
AcDbSymbolTableRecord
100
AcDbLayerTableRecord
  2
0
 70
     0
 62
     7
  6
Continuous
370
    -3
390
F
  0
LAYER
  5
2B
102
{ACAD_XDICTIONARY
360
991E
102
}
330
2
100
AcDbSymbolTableRecord
100
AcDbLayerTableRecord
  2
柱
 70
     0
 62
     7
  6
Continuous
370
    -3
390
F
  0
LAYER
  5
2C
102
{ACAD_XDICTIONARY
360
9920
102
}
330
2
100
AcDbSymbolTableRecord
100
AcDbLayerTableRecord
  2
メッシュ
 70
     0
 62
     5
  6
Continuous
370
    25
390
F
  0
LAYER
  5
2D
102
{ACAD_XDICTIONARY
360
9922
102
}
330
2
100
AcDbSymbolTableRecord
100
AcDbLayerTableRecord
  2
部品
 70
     0
 62
     7
  6
Continuous
370
    -3
390
F
  0
LAYER
  5
57
330
2
100
AcDbSymbolTableRecord
100
AcDbLayerTableRecord
  2
Defpoints
 70
     0
 62
     7
  6
Continuous
290
     0
370
    -3
390
F
  0
LAYER
  5
9F6
102
{ACAD_XDICTIONARY
360
9924
102
}
330
2
100
AcDbSymbolTableRecord
100
AcDbLayerTableRecord
  2
図枠
 70
     0
 62
     7
  6
Continuous
370
    -3
390
F
  0
LAYER
  5
A02
102
{ACAD_XDICTIONARY
360
9926
102
}
330
2
100
AcDbSymbolTableRecord
100
AcDbLayerTableRecord
  2
DIMS
 70
     0
 62
     1
  6
Continuous
370
    18
390
F
  0
LAYER
  5
E75
102
{ACAD_XDICTIONARY
360
9928
102
}
330
2
100
AcDbSymbolTableRecord
100
AcDbLayerTableRecord
  2
CENTER
 70
     0
 62
     6
  6
CENTERX2
370
    18
390
F
  0
LAYER
  5
5EF6
102
{ACAD_XDICTIONARY
360
992E
102
}
330
2
100
AcDbSymbolTableRecord
100
AcDbLayerTableRecord
  2
破線
 70
     0
 62
     4
  6
DASHED
370
    13
390
F
  0
ENDTAB
  0
TABLE
  2
STYLE
  5
3
330
0
100
AcDbSymbolTable
 70
     3
  0
STYLE
  5
11
330
3
100
AcDbSymbolTableRecord
100
AcDbTextStyleTableRecord
  2
Standard
 70
     0
 40
0.0
 41
1.0
 50
0.0
 71
     0
 42
50.0
  3
txt
  4

  0
STYLE
  5
D4A
330
3
100
AcDbSymbolTableRecord
100
AcDbTextStyleTableRecord
  2
ｽﾀｲﾙ1
 70
     0
 40
0.0
 41
1.0
 50
0.0
 71
     0
 42
65.1960991525536
  3

  4

1001
ACAD
1000
MS Gothic
1071
    32817
  0
ENDTAB
  0
TABLE
  2
VIEW
  5
6
330
0
100
AcDbSymbolTable
 70
     0
  0
ENDTAB
  0
TABLE
  2
UCS
  5
7
330
0
100
AcDbSymbolTable
 70
     0
  0
ENDTAB
  0
TABLE
  2
APPID
  5
9
330
0
100
AcDbSymbolTable
 70
     7
  0
APPID
  5
12
330
9
100
AcDbSymbolTableRecord
100
AcDbRegAppTableRecord
  2
ACAD
 70
     0
  0
APPID
  5
205A
330
9
100
AcDbSymbolTableRecord
100
AcDbRegAppTableRecord
  2
CONTENTTABDATA
 70
     0
  0
APPID
  5
205B
330
9
100
AcDbSymbolTableRecord
100
AcDbRegAppTableRecord
  2
CONTENTCURRENTTAB
 70
     0
  0
APPID
  5
205C
330
9
100
AcDbSymbolTableRecord
100
AcDbRegAppTableRecord
  2
CONTENTBLOCKICON
 70
     0
  0
APPID
  5
8DCF
330
9
100
AcDbSymbolTableRecord
100
AcDbRegAppTableRecord
  2
ACAD_EXEMPT_FROM_CAD_STANDARDS
 70
     0
  0
APPID
  5
9939
330
9
100
AcDbSymbolTableRecord
100
AcDbRegAppTableRecord
  2
ACAD_NAV_VCDISPLAY
 70
     0
  0
APPID
  5
99DC
330
9
100
AcDbSymbolTableRecord
100
AcDbRegAppTableRecord
  2
ACAD_MLEADERVER
 70
     0
  0
ENDTAB
  0
TABLE
  2
DIMSTYLE
  5
A
330
0
100
AcDbSymbolTable
 70
     3
100
AcDbDimStyleTable
 71
     2
340
2059
340
27
  0
DIMSTYLE
105
27
102
{ACAD_REACTORS
330
1E23
330
1E24
330
1E26
102
}
330
A
100
AcDbSymbolTableRecord
100
AcDbDimStyleTableRecord
  2
ISO-25
 70
     0
 41
10.0
 42
10.0
 43
5.0
 44
10.0
 73
     0
 74
     0
 77
     1
 78
     8
140
50.0
141
10.0
143
0.03937007874016
147
5.0
171
     3
172
     1
271
     2
272
     2
274
     3
283
     0
284
     8
340
11
342
1EC3
  0
DIMSTYLE
105
2059
102
{ACAD_REACTORS
330
83B3
330
83EF
330
841D
330
843B
330
8448
330
842C
102
}
330
A
100
AcDbSymbolTableRecord
100
AcDbDimStyleTableRecord
  2
STANDARD
 70
     0
 41
3.0
 42
0.99
 43
6.0
 44
2.0
 73
     0
 74
     0
 77
     3
 78
     8
140
3.5
147
0.9
172
     1
176
     4
177
     4
178
     8
271
     2
284
     8
340
11
  0
ENDTAB
  0
TABLE
  2
BLOCK_RECORD
  5
1
330
0
100
AcDbSymbolTable
 70
     9
  0
BLOCK_RECORD
  5
1F
102
{ACAD_XDICTIONARY
360
9817
102
}
330
1
100
AcDbSymbolTableRecord
100
AcDbBlockTableRecord
  2
*Model_Space
340
22
  0
BLOCK_RECORD
  5
1B
330
1
100
AcDbSymbolTableRecord
100
AcDbBlockTableRecord
  2
*Paper_Space
340
1E
  0
BLOCK_RECORD
  5
23
330
1
100
AcDbSymbolTableRecord
100
AcDbBlockTableRecord
  2
*Paper_Space0
340
26
  0
BLOCK_RECORD
  5
1EC3
330
1
100
AcDbSymbolTableRecord
100
AcDbBlockTableRecord
  2
_Dot
340
0
  0
BLOCK_RECORD
  5
83B4
330
1
100
AcDbSymbolTableRecord
100
AcDbBlockTableRecord
  2
*D2
340
0
  0
BLOCK_RECORD
  5
83F0
330
1
100
AcDbSymbolTableRecord
100
AcDbBlockTableRecord
  2
*D3
340
0
  0
BLOCK_RECORD
  5
841E
330
1
100
AcDbSymbolTableRecord
100
AcDbBlockTableRecord
  2
*D4
340
0
  0
BLOCK_RECORD
  5
842D
330
1
100
AcDbSymbolTableRecord
100
AcDbBlockTableRecord
  2
*D5
340
0
  0
BLOCK_RECORD
  5
843C
330
1
100
AcDbSymbolTableRecord
100
AcDbBlockTableRecord
  2
*D6
340
0
  0
BLOCK_RECORD
  5
8449
330
1
100
AcDbSymbolTableRecord
100
AcDbBlockTableRecord
  2
*D7
340
0
  0
ENDTAB
  0
ENDSEC
  0
SECTION
  2
BLOCKS
  0
BLOCK
  5
20
330
1F
100
AcDbEntity
  8
0
100
AcDbBlockBegin
  2
*Model_Space
 70
     0
 10
0.0
 20
0.0
 30
0.0
  3
*Model_Space
  1

  0
ENDBLK
  5
21
330
1F
100
AcDbEntity
  8
0
100
AcDbBlockEnd
  0
BLOCK
  5
1C
330
1B
100
AcDbEntity
 67
     1
  8
0
100
AcDbBlockBegin
  2
*Paper_Space
 70
     0
 10
0.0
 20
0.0
 30
0.0
  3
*Paper_Space
  1

  0
ENDBLK
  5
1D
330
1B
100
AcDbEntity
 67
     1
  8
0
100
AcDbBlockEnd
  0
BLOCK
  5
24
330
23
100
AcDbEntity
 67
     1
  8
0
100
AcDbBlockBegin
  2
*Paper_Space0
 70
     0
 10
0.0
 20
0.0
 30
0.0
  3
*Paper_Space0
  1

  0
ENDBLK
  5
25
330
23
100
AcDbEntity
 67
     1
  8
0
100
AcDbBlockEnd
  0
BLOCK
  5
1EC6
330
1EC3
100
AcDbEntity
  8
0
100
AcDbBlockBegin
  2
_Dot
 70
     0
 10
0.0
 20
0.0
 30
0.0
  3
_Dot
  1

  0
LWPOLYLINE
  5
1EC4
330
1EC3
100
AcDbEntity
  8
DIMS
 62
     0
100
AcDbPolyline
 90
        2
 70
     1
 43
0.5
 10
-0.25
 20
0.0
 42
1.0
 10
0.25
 20
0.0
 42
1.0
  0
LINE
  5
1EC5
330
1EC3
100
AcDbEntity
  8
DIMS
 62
     0
370
    -2
100
AcDbLine
 10
-0.5
 20
0.0
 30
0.0
 11
-1.0
 21
0.0
 31
0.0
  0
ENDBLK
  5
1EC7
330
1EC3
100
AcDbEntity
  8
0
100
AcDbBlockEnd
  0
BLOCK
  5
83BE
330
83B4
100
AcDbEntity
  8
0
100
AcDbBlockBegin
  2
*D2
 70
     1
 10
0.0
 20
0.0
 30
0.0
  3
*D2
  1

  0
LINE
  5
8409
330
83B4
100
AcDbEntity
  8
DIMS
 62
     4
370
    -2
100
AcDbLine
 10
1336.716522887531
 20
4641.869155343019
 30
0.0
 11
1336.716522887531
 21
5238.635626830355
 31
0.0
  0
LINE
  5
840A
330
83B4
100
AcDbEntity
  8
DIMS
 62
     4
370
    -2
100
AcDbLine
 10
2426.716522887532
 20
4641.869155343019
 30
0.0
 11
2426.716522887532
 21
5238.635626830355
 31
0.0
  0
LINE
  5
840B
330
83B4
100
AcDbEntity
  8
DIMS
 62
     4
370
    -2
100
AcDbLine
 10
1396.716522887532
 20
5198.635626830355
 30
0.0
 11
2366.716522887532
 21
5198.635626830355
 31
0.0
  0
SOLID
  5
840C
330
83B4
100
AcDbEntity
  8
DIMS
 62
     4
100
AcDbTrace
 10
1396.716522887532
 20
5208.635626830355
 30
0.0
 11
1396.716522887532
 21
5188.635626830355
 31
0.0
 12
1336.716522887531
 22
5198.635626830355
 32
0.0
 13
1336.716522887531
 23
5198.635626830355
 33
0.0
  0
SOLID
  5
840D
330
83B4
100
AcDbEntity
  8
DIMS
 62
     4
100
AcDbTrace
 10
2366.716522887532
 20
5208.635626830355
 30
0.0
 11
2366.716522887532
 21
5188.635626830355
 31
0.0
 12
2426.716522887532
 22
5198.635626830355
 32
0.0
 13
2426.716522887532
 23
5198.635626830355
 33
0.0
  0
MTEXT
  5
840E
330
83B4
100
AcDbEntity
  8
DIMS
 62
     8
100
AcDbMText
 10
1861.346342827612
 20
5251.635626830355
 30
0.0
 40
70.0
 41
0.0
 71
     5
 72
     1
  1
\A1;1090
 73
     1
 44
1.0
1001
ACAD
1000
MTEXTBEGIN
1070
    73
1070
     1
1070
    44
1040
1.0
1070
    74
1070
     0
1000
MTEXTEND
  0
POINT
  5
840F
330
83B4
100
AcDbEntity
  8
Defpoints
 62
     0
100
AcDbPoint
 10
1336.716522887531
 20
4622.069155343019
 30
0.0
  0
POINT
  5
8410
330
83B4
100
AcDbEntity
  8
Defpoints
 62
     0
100
AcDbPoint
 10
2426.716522887532
 20
4622.069155343019
 30
0.0
  0
POINT
  5
8411
330
83B4
100
AcDbEntity
  8
Defpoints
 62
     0
100
AcDbPoint
 10
2426.716522887532
 20
5198.635626830355
 30
0.0
  0
ENDBLK
  5
83BF
330
83B4
100
AcDbEntity
  8
0
100
AcDbBlockEnd
  0
BLOCK
  5
83FC
330
83F0
100
AcDbEntity
  8
0
100
AcDbBlockBegin
  2
*D3
 70
     1
 10
0.0
 20
0.0
 30
0.0
  3
*D3
  1

  0
LINE
  5
8412
330
83F0
100
AcDbEntity
  8
DIMS
 62
     4
370
    -2
100
AcDbLine
 10
1306.716522887532
 20
4641.869155343019
 30
0.0
 11
1306.716522887532
 21
5089.621207263326
 31
0.0
  0
LINE
  5
8413
330
83F0
100
AcDbEntity
  8
DIMS
 62
     4
370
    -2
100
AcDbLine
 10
1366.716522887531
 20
4641.869155343019
 30
0.0
 11
1366.716522887531
 21
5089.621207263326
 31
0.0
  0
LINE
  5
8414
330
83F0
100
AcDbEntity
  8
DIMS
 62
     4
370
    -2
100
AcDbLine
 10
1246.716522887532
 20
5049.621207263326
 30
0.0
 11
1186.716522887532
 21
5049.621207263326
 31
0.0
  0
LINE
  5
8415
330
83F0
100
AcDbEntity
  8
DIMS
 62
     4
370
    -2
100
AcDbLine
 10
1426.716522887532
 20
5049.621207263326
 30
0.0
 11
1650.890585784386
 21
5049.621207263326
 31
0.0
  0
LINE
  5
8416
330
83F0
100
AcDbEntity
  8
DIMS
 62
     4
370
    -2
100
AcDbLine
 10
1306.716522887532
 20
5049.621207263326
 30
0.0
 11
1366.716522887531
 21
5049.621207263326
 31
0.0
  0
SOLID
  5
8417
330
83F0
100
AcDbEntity
  8
DIMS
 62
     4
100
AcDbTrace
 10
1246.716522887532
 20
5059.621207263326
 30
0.0
 11
1246.716522887532
 21
5039.621207263326
 31
0.0
 12
1306.716522887532
 22
5049.621207263326
 32
0.0
 13
1306.716522887532
 23
5049.621207263326
 33
0.0
  0
SOLID
  5
8418
330
83F0
100
AcDbEntity
  8
DIMS
 62
     4
100
AcDbTrace
 10
1426.716522887532
 20
5059.621207263326
 30
0.0
 11
1426.716522887532
 21
5039.621207263326
 31
0.0
 12
1366.716522887531
 22
5049.621207263326
 32
0.0
 13
1366.716522887531
 23
5049.621207263326
 33
0.0
  0
MTEXT
  5
8419
330
83F0
100
AcDbEntity
  8
DIMS
 62
     8
100
AcDbMText
 10
1580.390585784386
 20
5102.621207263326
 30
0.0
 40
70.0
 41
0.0
 71
     5
 72
     1
  1
\A1;60
 73
     1
 44
1.0
1001
ACAD
1000
MTEXTBEGIN
1070
    73
1070
     1
1070
    44
1040
1.0
1070
    74
1070
     0
1000
MTEXTEND
  0
POINT
  5
841A
330
83F0
100
AcDbEntity
  8
Defpoints
 62
     0
100
AcDbPoint
 10
1306.716522887532
 20
4622.069155343019
 30
0.0
  0
POINT
  5
841B
330
83F0
100
AcDbEntity
  8
Defpoints
 62
     0
100
AcDbPoint
 10
1366.716522887531
 20
4622.069155343019
 30
0.0
  0
POINT
  5
841C
330
83F0
100
AcDbEntity
  8
Defpoints
 62
     0
100
AcDbPoint
 10
1366.716522887531
 20
5049.621207263326
 30
0.0
  0
ENDBLK
  5
83FD
330
83F0
100
AcDbEntity
  8
0
100
AcDbBlockEnd
  0
BLOCK
  5
842A
330
841E
100
AcDbEntity
  8
0
100
AcDbBlockBegin
  2
*D4
 70
     1
 10
0.0
 20
0.0
 30
0.0
  3
*D4
  1

  0
LINE
  5
841F
330
841E
100
AcDbEntity
  8
DIMS
 62
     4
370
    -2
100
AcDbLine
 10
2456.716522887532
 20
4641.869155343019
 30
0.0
 11
2456.716522887532
 21
5088.188387823928
 31
0.0
  0
LINE
  5
8420
330
841E
100
AcDbEntity
  8
DIMS
 62
     4
370
    -2
100
AcDbLine
 10
2396.716522887532
 20
4641.869155343019
 30
0.0
 11
2396.716522887532
 21
5088.188387823928
 31
0.0
  0
LINE
  5
8421
330
841E
100
AcDbEntity
  8
DIMS
 62
     4
370
    -2
100
AcDbLine
 10
2516.716522887532
 20
5048.188387823928
 30
0.0
 11
2576.716522887532
 21
5048.188387823928
 31
0.0
  0
LINE
  5
8422
330
841E
100
AcDbEntity
  8
DIMS
 62
     4
370
    -2
100
AcDbLine
 10
2336.716522887533
 20
5048.188387823928
 30
0.0
 11
2135.716522887532
 21
5048.188387823928
 31
0.0
  0
LINE
  5
8423
330
841E
100
AcDbEntity
  8
DIMS
 62
     4
370
    -2
100
AcDbLine
 10
2456.716522887532
 20
5048.188387823928
 30
0.0
 11
2396.716522887532
 21
5048.188387823928
 31
0.0
  0
SOLID
  5
8424
330
841E
100
AcDbEntity
  8
DIMS
 62
     4
100
AcDbTrace
 10
2516.716522887532
 20
5058.188387823928
 30
0.0
 11
2516.716522887532
 21
5038.188387823928
 31
0.0
 12
2456.716522887532
 22
5048.188387823928
 32
0.0
 13
2456.716522887532
 23
5048.188387823928
 33
0.0
  0
SOLID
  5
8425
330
841E
100
AcDbEntity
  8
DIMS
 62
     4
100
AcDbTrace
 10
2336.716522887533
 20
5058.188387823928
 30
0.0
 11
2336.716522887533
 21
5038.188387823928
 31
0.0
 12
2396.716522887532
 22
5048.188387823928
 32
0.0
 13
2396.716522887532
 23
5048.188387823928
 33
0.0
  0
MTEXT
  5
8426
330
841E
100
AcDbEntity
  8
DIMS
 62
     8
100
AcDbMText
 10
2206.216522887533
 20
5101.188387823928
 30
0.0
 40
70.0
 41
0.0
 71
     5
 72
     1
  1
\A1;60
 73
     1
 44
1.0
1001
ACAD
1000
MTEXTBEGIN
1070
    73
1070
     1
1070
    44
1040
1.0
1070
    74
1070
     0
1000
MTEXTEND
  0
POINT
  5
8427
330
841E
100
AcDbEntity
  8
Defpoints
 62
     0
100
AcDbPoint
 10
2456.716522887532
 20
4622.069155343019
 30
0.0
  0
POINT
  5
8428
330
841E
100
AcDbEntity
  8
Defpoints
 62
     0
100
AcDbPoint
 10
2396.716522887532
 20
4622.069155343019
 30
0.0
  0
POINT
  5
8429
330
841E
100
AcDbEntity
  8
Defpoints
 62
     0
100
AcDbPoint
 10
2396.716522887532
 20
5048.188387823928
 30
0.0
  0
ENDBLK
  5
842B
330
841E
100
AcDbEntity
  8
0
100
AcDbBlockEnd
  0
BLOCK
  5
8439
330
842D
100
AcDbEntity
  8
0
100
AcDbBlockBegin
  2
*D5
 70
     1
 10
0.0
 20
0.0
 30
0.0
  3
*D5
  1

  0
LINE
  5
8465
330
842D
100
AcDbEntity
  8
DIMS
 62
     4
370
    -2
100
AcDbLine
 10
1366.716522887531
 20
4641.86915534302
 30
0.0
 11
1366.716522887531
 21
4936.308303617463
 31
0.0
  0
LINE
  5
8466
330
842D
100
AcDbEntity
  8
DIMS
 62
     4
370
    -2
100
AcDbLine
 10
1381.716522887531
 20
4631.869155343019
 30
0.0
 11
1381.716522887531
 21
4936.308303617463
 31
0.0
  0
LINE
  5
8467
330
842D
100
AcDbEntity
  8
DIMS
 62
     4
370
    -2
100
AcDbLine
 10
1441.716522887531
 20
4896.308303617463
 30
0.0
 11
1501.716522887531
 21
4896.308303617463
 31
0.0
  0
LINE
  5
8468
330
842D
100
AcDbEntity
  8
DIMS
 62
     4
370
    -2
100
AcDbLine
 10
1306.716522887532
 20
4896.308303617463
 30
0.0
 11
1117.383189554198
 21
4896.308303617463
 31
0.0
  0
LINE
  5
8469
330
842D
100
AcDbEntity
  8
DIMS
 62
     4
370
    -2
100
AcDbLine
 10
1381.716522887531
 20
4896.308303617463
 30
0.0
 11
1366.716522887531
 21
4896.308303617463
 31
0.0
  0
SOLID
  5
846A
330
842D
100
AcDbEntity
  8
DIMS
 62
     4
100
AcDbTrace
 10
1441.716522887531
 20
4906.308303617463
 30
0.0
 11
1441.716522887531
 21
4886.308303617463
 31
0.0
 12
1381.716522887531
 22
4896.308303617463
 32
0.0
 13
1381.716522887531
 23
4896.308303617463
 33
0.0
  0
SOLID
  5
846B
330
842D
100
AcDbEntity
  8
DIMS
 62
     4
100
AcDbTrace
 10
1306.716522887532
 20
4906.308303617463
 30
0.0
 11
1306.716522887532
 21
4886.308303617463
 31
0.0
 12
1366.716522887531
 22
4896.308303617463
 32
0.0
 13
1366.716522887531
 23
4896.308303617463
 33
0.0
  0
MTEXT
  5
846C
330
842D
100
AcDbEntity
  8
DIMS
 62
     8
100
AcDbMText
 10
1182.049856220865
 20
4949.308303617463
 30
0.0
 40
70.0
 41
0.0
 71
     5
 72
     1
  1
\A1;15
 73
     1
 44
1.0
1001
ACAD
1000
MTEXTBEGIN
1070
    73
1070
     1
1070
    44
1040
1.0
1070
    74
1070
     0
1000
MTEXTEND
  0
POINT
  5
846D
330
842D
100
AcDbEntity
  8
Defpoints
 62
     0
100
AcDbPoint
 10
1366.716522887531
 20
4622.069155343019
 30
0.0
  0
POINT
  5
846E
330
842D
100
AcDbEntity
  8
Defpoints
 62
     0
100
AcDbPoint
 10
1381.716522887531
 20
4612.069155343019
 30
0.0
  0
POINT
  5
846F
330
842D
100
AcDbEntity
  8
Defpoints
 62
     0
100
AcDbPoint
 10
1381.716522887531
 20
4896.308303617463
 30
0.0
  0
ENDBLK
  5
843A
330
842D
100
AcDbEntity
  8
0
100
AcDbBlockEnd
  0
BLOCK
  5
8446
330
843C
100
AcDbEntity
  8
0
100
AcDbBlockBegin
  2
*D6
 70
     1
 10
0.0
 20
0.0
 30
0.0
  3
*D6
  1

  0
LINE
  5
843D
330
843C
100
AcDbEntity
  8
DIMS
 62
     4
370
    -2
100
AcDbLine
 10
1381.716522887531
 20
4631.869155343019
 30
0.0
 11
1381.716522887531
 21
4936.308303617463
 31
0.0
  0
LINE
  5
843E
330
843C
100
AcDbEntity
  8
DIMS
 62
     4
370
    -2
100
AcDbLine
 10
2376.716522887532
 20
4631.869155343019
 30
0.0
 11
2376.716522887532
 21
4936.308303617463
 31
0.0
  0
LINE
  5
843F
330
843C
100
AcDbEntity
  8
DIMS
 62
     4
370
    -2
100
AcDbLine
 10
1441.716522887531
 20
4896.308303617463
 30
0.0
 11
2316.716522887532
 21
4896.308303617463
 31
0.0
  0
SOLID
  5
8440
330
843C
100
AcDbEntity
  8
DIMS
 62
     4
100
AcDbTrace
 10
1441.716522887531
 20
4906.308303617463
 30
0.0
 11
1441.716522887531
 21
4886.308303617463
 31
0.0
 12
1381.716522887531
 22
4896.308303617463
 32
0.0
 13
1381.716522887531
 23
4896.308303617463
 33
0.0
  0
SOLID
  5
8441
330
843C
100
AcDbEntity
  8
DIMS
 62
     4
100
AcDbTrace
 10
2316.716522887532
 20
4906.308303617463
 30
0.0
 11
2316.716522887532
 21
4886.308303617463
 31
0.0
 12
2376.716522887532
 22
4896.308303617463
 32
0.0
 13
2376.716522887532
 23
4896.308303617463
 33
0.0
  0
MTEXT
  5
8442
330
843C
100
AcDbEntity
  8
DIMS
 62
     8
100
AcDbMText
 10
1879.216522887531
 20
4949.308303617463
 30
0.0
 40
70.0
 41
0.0
 71
     5
 72
     1
  1
\A1;995
 73
     1
 44
1.0
1001
ACAD
1000
MTEXTBEGIN
1070
    73
1070
     1
1070
    44
1040
1.0
1070
    74
1070
     0
1000
MTEXTEND
  0
POINT
  5
8443
330
843C
100
AcDbEntity
  8
Defpoints
 62
     0
100
AcDbPoint
 10
1381.716522887531
 20
4612.069155343019
 30
0.0
  0
POINT
  5
8444
330
843C
100
AcDbEntity
  8
Defpoints
 62
     0
100
AcDbPoint
 10
2376.716522887532
 20
4612.069155343019
 30
0.0
  0
POINT
  5
8445
330
843C
100
AcDbEntity
  8
Defpoints
 62
     0
100
AcDbPoint
 10
2376.716522887532
 20
4896.308303617463
 30
0.0
  0
ENDBLK
  5
8447
330
843C
100
AcDbEntity
  8
0
100
AcDbBlockEnd
  0
BLOCK
  5
8458
330
8449
100
AcDbEntity
  8
0
100
AcDbBlockBegin
  2
*D7
 70
     1
 10
0.0
 20
0.0
 30
0.0
  3
*D7
  1

  0
LINE
  5
845A
330
8449
100
AcDbEntity
  8
DIMS
 62
     4
370
    -2
100
AcDbLine
 10
2376.716522887532
 20
4631.869155343019
 30
0.0
 11
2376.716522887532
 21
4936.308303617463
 31
0.0
  0
LINE
  5
845B
330
8449
100
AcDbEntity
  8
DIMS
 62
     4
370
    -2
100
AcDbLine
 10
2396.716522887532
 20
4641.869155343019
 30
0.0
 11
2396.716522887532
 21
4936.308303617463
 31
0.0
  0
LINE
  5
845C
330
8449
100
AcDbEntity
  8
DIMS
 62
     4
370
    -2
100
AcDbLine
 10
2316.716522887532
 20
4896.308303617463
 30
0.0
 11
2256.716522887532
 21
4896.308303617463
 31
0.0
  0
LINE
  5
845D
330
8449
100
AcDbEntity
  8
DIMS
 62
     4
370
    -2
100
AcDbLine
 10
2456.716522887532
 20
4896.308303617463
 30
0.0
 11
2516.716522887533
 21
4896.308303617463
 31
0.0
  0
MTEXT
  5
845E
330
8449
100
AcDbEntity
  8
DIMS
 62
     8
100
AcDbMText
 10
2500.66399667033
 20
4949.308303617463
 30
0.0
 40
70.0
 41
0.0
 71
     5
 72
     1
  1
\A1;20
 73
     1
 44
1.0
1001
ACAD
1000
MTEXTBEGIN
1070
    73
1070
     1
1070
    44
1040
1.0
1070
    74
1070
     0
1000
MTEXTEND
  0
LINE
  5
845F
330
8449
100
AcDbEntity
  8
DIMS
 62
     4
370
    -2
100
AcDbLine
 10
2376.716522887532
 20
4896.308303617463
 30
0.0
 11
2396.716522887532
 21
4896.308303617463
 31
0.0
  0
SOLID
  5
8460
330
8449
100
AcDbEntity
  8
DIMS
 62
     4
100
AcDbTrace
 10
2316.716522887532
 20
4906.308303617463
 30
0.0
 11
2316.716522887532
 21
4886.308303617463
 31
0.0
 12
2376.716522887532
 22
4896.308303617463
 32
0.0
 13
2376.716522887532
 23
4896.308303617463
 33
0.0
  0
SOLID
  5
8461
330
8449
100
AcDbEntity
  8
DIMS
 62
     4
100
AcDbTrace
 10
2456.716522887532
 20
4906.308303617463
 30
0.0
 11
2456.716522887532
 21
4886.308303617463
 31
0.0
 12
2396.716522887532
 22
4896.308303617463
 32
0.0
 13
2396.716522887532
 23
4896.308303617463
 33
0.0
  0
POINT
  5
8462
330
8449
100
AcDbEntity
  8
Defpoints
 62
     0
100
AcDbPoint
 10
2376.716522887532
 20
4612.069155343019
 30
0.0
  0
POINT
  5
8463
330
8449
100
AcDbEntity
  8
Defpoints
 62
     0
100
AcDbPoint
 10
2396.716522887532
 20
4622.069155343019
 30
0.0
  0
POINT
  5
8464
330
8449
100
AcDbEntity
  8
Defpoints
 62
     0
100
AcDbPoint
 10
2396.716522887532
 20
4896.308303617463
 30
0.0
  0
ENDBLK
  5
8459
330
8449
100
AcDbEntity
  8
0
100
AcDbBlockEnd
  0
ENDSEC
  0
SECTION
  2
ENTITIES
  0
LINE
  5
E0
330
1F
100
AcDbEntity
  8
柱
100
AcDbLine
 10
-256.4064020170408
 20
15.69054870722903
 30
0.0
 11
-256.4064020170408
 21
15.69054870722903
 31
0.0
  0
LINE
  5
15B3
330
1F
100
AcDbEntity
  8
DIMS
100
AcDbLine
 10
1003.468239496011
 20
1159.731826641227
 30
0.0
 11
1003.468239496011
 21
259.7318266412276
 31
0.0
  0
LINE
  5
15B4
330
1F
100
AcDbEntity
  8
DIMS
100
AcDbLine
 10
1153.468239496011
 20
1159.731826641227
 30
0.0
 11
1153.468239496011
 21
259.7318266412276
 31
0.0
  0
LINE
  5
15B5
330
1F
100
AcDbEntity
  8
DIMS
100
AcDbLine
 10
1653.468239496011
 20
1159.731826641227
 30
0.0
 11
1653.468239496011
 21
259.7318266412276
 31
0.0
  0
LINE
  5
15B6
330
1F
100
AcDbEntity
  8
DIMS
100
AcDbLine
 10
1803.468239496011
 20
1159.731826641227
 30
0.0
 11
1803.468239496011
 21
259.7318266412276
 31
0.0
  0
LINE
  5
15B7
330
1F
100
AcDbEntity
  8
DIMS
100
AcDbLine
 10
1953.468239496011
 20
1159.731826641227
 30
0.0
 11
1953.468239496011
 21
259.7318266412276
 31
0.0
  0
LINE
  5
15B8
330
1F
100
AcDbEntity
  8
DIMS
100
AcDbLine
 10
2103.468239496011
 20
1159.731826641227
 30
0.0
 11
2103.468239496011
 21
259.7318266412276
 31
0.0
  0
LINE
  5
15B9
330
1F
100
AcDbEntity
  8
DIMS
100
AcDbLine
 10
2603.468239496011
 20
1159.731826641227
 30
0.0
 11
2603.468239496012
 21
259.7318266412276
 31
0.0
  0
LINE
  5
15BA
330
1F
100
AcDbEntity
  8
DIMS
100
AcDbLine
 10
803.4682394960109
 20
1159.731826641227
 30
0.0
 11
2603.468239496011
 21
1159.731826641227
 31
0.0
  0
LINE
  5
15BB
330
1F
100
AcDbEntity
  8
DIMS
100
AcDbLine
 10
803.4682394960109
 20
1059.731826641227
 30
0.0
 11
2603.468239496011
 21
1059.731826641227
 31
0.0
  0
TEXT
  5
15BC
330
1F
100
AcDbEntity
  8
DIMS
100
AcDbText
 10
843.0664916840687
 20
1085.706459351902
 30
0.0
 40
50.0
  1
型式
  7
ｽﾀｲﾙ1
100
AcDbText
  0
TEXT
  5
15BD
330
1F
100
AcDbEntity
  8
DIMS
100
AcDbText
 10
1044.00939978713
 20
1083.928326146279
 30
0.0
 40
50.0
  1
Ｗ
  7
ｽﾀｲﾙ1
100
AcDbText
  0
TEXT
  5
15BF
330
1F
100
AcDbEntity
  8
DIMS
100
AcDbText
 10
1693.682821219874
 20
1079.983763068587
 30
0.0
 40
50.0
  1
Ｈ
  7
ｽﾀｲﾙ1
100
AcDbText
  0
TEXT
  5
15C0
330
1F
100
AcDbEntity
  8
DIMS
100
AcDbText
 10
1844.282389806645
 20
1083.255835640247
 30
0.0
 40
50.0
  1
Ｌ
  7
ｽﾀｲﾙ1
100
AcDbText
  0
TEXT
  5
15C1
330
1F
100
AcDbEntity
  8
DIMS
100
AcDbText
 10
1996.322460263804
 20
1082.090345786704
 30
0.0
 40
50.0
  1
Ｄ
  7
ｽﾀｲﾙ1
100
AcDbText
  0
TEXT
  5
15C2
330
1F
100
AcDbEntity
  8
DIMS
100
AcDbText
 10
2153.207916777868
 20
1081.703319088592
 30
0.0
 40
50.0
  1
参考基礎寸法
  7
ｽﾀｲﾙ1
100
AcDbText
  0
LINE
  5
15C3
330
1F
100
AcDbEntity
  8
DIMS
100
AcDbLine
 10
803.4682394960109
 20
959.7318266412274
 30
0.0
 11
2603.468239496011
 21
959.7318266412276
 31
0.0
  0
TEXT
  5
15C4
330
1F
100
AcDbEntity
  8
DIMS
100
AcDbText
 10
874.612332477187
 20
980.5534207160873
 30
0.0
 40
50.0
  1
60S
  7
ｽﾀｲﾙ1
100
AcDbText
  0
TEXT
  5
15C6
330
1F
100
AcDbEntity
  8
DIMS
100
AcDbText
 10
1672.991751073143
 20
982.7784277737718
 30
0.0
 40
50.0
  1
560
  7
ｽﾀｲﾙ1
100
AcDbText
  0
TEXT
  5
15C7
330
1F
100
AcDbEntity
  8
DIMS
100
AcDbText
 10
1830.270088722303
 20
985.2652155289906
 30
0.0
 40
50.0
  1
830
  7
ｽﾀｲﾙ1
100
AcDbText
  0
TEXT
  5
15C8
330
1F
100
AcDbEntity
  8
DIMS
100
AcDbText
 10
1976.417129027905
 20
982.3857710465109
 30
0.0
 40
50.0
  1
265
  7
ｽﾀｲﾙ1
100
AcDbText
  0
TEXT
  5
15C9
330
1F
100
AcDbEntity
  8
DIMS
100
AcDbText
 10
2144.826740661265
 20
980.5534207160873
 30
0.0
 40
50.0
  1
250X250X450
  7
ｽﾀｲﾙ1
100
AcDbText
  0
LINE
  5
15CC
330
1F
100
AcDbEntity
  8
DIMS
100
AcDbLine
 10
803.4682394960109
 20
859.7318266412274
 30
0.0
 11
2603.468239496011
 21
859.7318266412276
 31
0.0
  0
LINE
  5
15CD
330
1F
100
AcDbEntity
  8
DIMS
100
AcDbLine
 10
803.4682394960109
 20
759.7318266412274
 30
0.0
 11
2603.468239496011
 21
759.7318266412275
 31
0.0
  0
LINE
  5
15CE
330
1F
100
AcDbEntity
  8
DIMS
100
AcDbLine
 10
803.4682394960109
 20
659.7318266412275
 30
0.0
 11
2603.468239496011
 21
659.7318266412275
 31
0.0
  0
LINE
  5
15CF
330
1F
100
AcDbEntity
  8
DIMS
100
AcDbLine
 10
803.4682394960109
 20
559.7318266412275
 30
0.0
 11
2603.468239496011
 21
559.7318266412275
 31
0.0
  0
LINE
  5
15D0
330
1F
100
AcDbEntity
  8
DIMS
100
AcDbLine
 10
803.4682394960109
 20
459.7318266412275
 30
0.0
 11
2603.468239496011
 21
459.7318266412275
 31
0.0
  0
LINE
  5
15D1
330
1F
100
AcDbEntity
  8
DIMS
100
AcDbLine
 10
803.4682394960109
 20
359.7318266412276
 30
0.0
 11
2603.468239496011
 21
359.7318266412276
 31
0.0
  0
LINE
  5
15D2
330
1F
100
AcDbEntity
  8
DIMS
100
AcDbLine
 10
803.4682394960109
 20
259.7318266412276
 30
0.0
 11
2603.468239496011
 21
259.7318266412276
 31
0.0
  0
TEXT
  5
15E0
330
1F
100
AcDbEntity
  8
DIMS
100
AcDbText
 10
2144.826740661265
 20
880.5534207160873
 30
0.0
 40
50.0
  1
250X250X450
  7
ｽﾀｲﾙ1
100
AcDbText
  0
TEXT
  5
15E1
330
1F
100
AcDbEntity
  8
DIMS
100
AcDbText
 10
2144.826740661265
 20
780.5534207160872
 30
0.0
 40
50.0
  1
250X250X450
  7
ｽﾀｲﾙ1
100
AcDbText
  0
TEXT
  5
15E2
330
1F
100
AcDbEntity
  8
DIMS
100
AcDbText
 10
2144.826740661265
 20
680.5534207160872
 30
0.0
 40
50.0
  1
250X250X450
  7
ｽﾀｲﾙ1
100
AcDbText
  0
TEXT
  5
15E3
330
1F
100
AcDbEntity
  8
DIMS
100
AcDbText
 10
2144.826740661265
 20
580.5534207160872
 30
0.0
 40
50.0
  1
250X250X450
  7
ｽﾀｲﾙ1
100
AcDbText
  0
TEXT
  5
15E6
330
1F
100
AcDbEntity
  8
DIMS
100
AcDbText
 10
2148.100625537143
 20
481.8790477552375
 30
0.0
 40
50.0
  1
300X300X600
  7
ｽﾀｲﾙ1
100
AcDbText
  0
TEXT
  5
15E8
330
1F
100
AcDbEntity
  8
DIMS
100
AcDbText
 10
2148.100625537143
 20
381.8790477552375
 30
0.0
 40
50.0
  1
300X300X600
  7
ｽﾀｲﾙ1
100
AcDbText
  0
TEXT
  5
15E9
330
1F
100
AcDbEntity
  8
DIMS
100
AcDbText
 10
2148.100625537143
 20
281.8790477552375
 30
0.0
 40
50.0
  1
300X300X600
  7
ｽﾀｲﾙ1
100
AcDbText
  0
TEXT
  5
15EB
330
1F
100
AcDbEntity
  8
DIMS
100
AcDbText
 10
1015.068082756341
 20
483.7113980856611
 30
0.0
 40
50.0
  1
1090
  7
ｽﾀｲﾙ1
100
AcDbText
  0
TEXT
  5
15EC
330
1F
100
AcDbEntity
  8
DIMS
100
AcDbText
 10
876.0705686591609
 20
879.5006445512226
 30
0.0
 40
50.0
  1
80S
  7
ｽﾀｲﾙ1
100
AcDbText
  0
TEXT
  5
15ED
330
1F
100
AcDbEntity
  8
DIMS
100
AcDbText
 10
872.74356508438
 20
782.3857047438141
 30
0.0
 40
50.0
  1
90S
  7
ｽﾀｲﾙ1
100
AcDbText
  0
TEXT
  5
15EE
330
1F
100
AcDbEntity
  8
DIMS
100
AcDbText
 10
843.1828694813521
 20
676.1089560081363
 30
0.0
 40
50.0
  1
100S
  7
ｽﾀｲﾙ1
100
AcDbText
  0
TEXT
  5
15EF
330
1F
100
AcDbEntity
  8
DIMS
100
AcDbText
 10
844.902968729224
 20
589.9881468213388
 30
0.0
 40
50.0
  1
120S
  7
ｽﾀｲﾙ1
100
AcDbText
  0
TEXT
  5
15F0
330
1F
100
AcDbEntity
  8
DIMS
100
AcDbText
 10
843.1828694813521
 20
483.7113980856592
 30
0.0
 40
50.0
  1
150S
  7
ｽﾀｲﾙ1
100
AcDbText
  0
TEXT
  5
15F1
330
1F
100
AcDbEntity
  8
DIMS
100
AcDbText
 10
843.2961065202398
 20
382.9317289793271
 30
0.0
 40
50.0
  1
180S
  7
ｽﾀｲﾙ1
100
AcDbText
  0
TEXT
  5
15F2
330
1F
100
AcDbEntity
  8
DIMS
100
AcDbText
 10
841.5759839130041
 20
278.4873448931084
 30
0.0
 40
50.0
  1
200S
  7
ｽﾀｲﾙ1
100
AcDbText
  0
TEXT
  5
15F3
330
1F
100
AcDbEntity
  8
DIMS
100
AcDbText
 10
1015.068082756341
 20
383.7113980856612
 30
0.0
 40
50.0
  1
1090
  7
ｽﾀｲﾙ1
100
AcDbText
  0
TEXT
  5
15F4
330
1F
100
AcDbEntity
  8
DIMS
100
AcDbText
 10
1015.068082756341
 20
283.7113980856612
 30
0.0
 40
50.0
  1
1090
  7
ｽﾀｲﾙ1
100
AcDbText
  0
TEXT
  5
15F7
330
1F
100
AcDbEntity
  8
DIMS
100
AcDbText
 10
1976.417129027905
 20
882.3857710465109
 30
0.0
 40
50.0
  1
265
  7
ｽﾀｲﾙ1
100
AcDbText
  0
TEXT
  5
15F8
330
1F
100
AcDbEntity
  8
DIMS
100
AcDbText
 10
1976.417129027905
 20
782.3857710465108
 30
0.0
 40
50.0
  1
265
  7
ｽﾀｲﾙ1
100
AcDbText
  0
TEXT
  5
15F9
330
1F
100
AcDbEntity
  8
DIMS
100
AcDbText
 10
1976.417129027905
 20
682.3857710465108
 30
0.0
 40
50.0
  1
265
  7
ｽﾀｲﾙ1
100
AcDbText
  0
TEXT
  5
15FA
330
1F
100
AcDbEntity
  8
DIMS
100
AcDbText
 10
1976.417129027905
 20
582.3857710465108
 30
0.0
 40
50.0
  1
265
  7
ｽﾀｲﾙ1
100
AcDbText
  0
TEXT
  5
163C
330
1F
100
AcDbEntity
  8
DIMS
100
AcDbText
 10
1674.143904960201
 20
879.5543123148362
 30
0.0
 40
50.0
  1
760
  7
ｽﾀｲﾙ1
100
AcDbText
  0
TEXT
  5
163D
330
1F
100
AcDbEntity
  8
DIMS
100
AcDbText
 10
1812.567031560655
 20
881.7502803584829
 30
0.0
 40
50.0
  1
1030
  7
ｽﾀｲﾙ1
100
AcDbText
  0
TEXT
  5
163E
330
1F
100
AcDbEntity
  8
DIMS
100
AcDbText
 10
1676.341110052566
 20
780.7360940076359
 30
0.0
 40
50.0
  1
860
  7
ｽﾀｲﾙ1
100
AcDbText
  0
TEXT
  5
163F
330
1F
100
AcDbEntity
  8
DIMS
100
AcDbText
 10
1814.764236653013
 20
780.7360940076359
 30
0.0
 40
50.0
  1
1130
  7
ｽﾀｲﾙ1
100
AcDbText
  0
TEXT
  5
1640
330
1F
100
AcDbEntity
  8
DIMS
100
AcDbText
 10
1678.53829178556
 20
686.3097974686915
 30
0.0
 40
50.0
  1
960
  7
ｽﾀｲﾙ1
100
AcDbText
  0
TEXT
  5
1641
330
1F
100
AcDbEntity
  8
DIMS
100
AcDbText
 10
1816.96141838601
 20
684.1138294250431
 30
0.0
 40
50.0
  1
1230
  7
ｽﾀｲﾙ1
100
AcDbText
  0
TEXT
  5
1642
330
1F
100
AcDbEntity
  8
DIMS
100
AcDbText
 10
1663.157902857754
 20
578.7077356249792
 30
0.0
 40
50.0
  1
1160
  7
ｽﾀｲﾙ1
100
AcDbText
  0
TEXT
  5
1643
330
1F
100
AcDbEntity
  8
DIMS
100
AcDbText
 10
1814.764236653016
 20
578.7077356249774
 30
0.0
 40
50.0
  1
1430
  7
ｽﾀｲﾙ1
100
AcDbText
  0
TEXT
  5
1644
330
1F
100
AcDbEntity
  8
DIMS
100
AcDbText
 10
1667.552336401841
 20
477.6935492741304
 30
0.0
 40
50.0
  1
1460
  7
ｽﾀｲﾙ1
100
AcDbText
  0
TEXT
  5
1645
330
1F
100
AcDbEntity
  8
DIMS
100
AcDbText
 10
1814.764260012376
 20
484.2814247669958
 30
0.0
 40
50.0
  1
1780
  7
ｽﾀｲﾙ1
100
AcDbText
  0
TEXT
  5
1646
330
1F
100
AcDbEntity
  8
DIMS
100
AcDbText
 10
1979.553707564992
 20
482.0854710423864
 30
0.0
 40
50.0
  1
315
  7
ｽﾀｲﾙ1
100
AcDbText
  0
TEXT
  5
1647
330
1F
100
AcDbEntity
  8
DIMS
100
AcDbText
 10
1665.355107950112
 20
378.8753309669319
 30
0.0
 40
50.0
  1
1760
  7
ｽﾀｲﾙ1
100
AcDbText
  0
TEXT
  5
1648
330
1F
100
AcDbEntity
  8
DIMS
100
AcDbText
 10
1816.961441745377
 20
381.0712703724984
 30
0.0
 40
50.0
  1
2130
  7
ｽﾀｲﾙ1
100
AcDbText
  0
TEXT
  5
1649
330
1F
100
AcDbEntity
  8
DIMS
100
AcDbText
 10
1983.948094390354
 20
378.8753309669319
 30
0.0
 40
50.0
  1
365
  7
ｽﾀｲﾙ1
100
AcDbText
  0
TEXT
  5
164A
330
1F
100
AcDbEntity
  8
DIMS
100
AcDbText
 10
1665.355107950116
 20
277.861144616083
 30
0.0
 40
50.0
  1
1960
  7
ｽﾀｲﾙ1
100
AcDbText
  0
TEXT
  5
164C
330
1F
100
AcDbEntity
  8
DIMS
100
AcDbText
 10
1819.158623478372
 20
280.0570983406906
 30
0.0
 40
50.0
  1
2330
  7
ｽﾀｲﾙ1
100
AcDbText
  0
TEXT
  5
164D
330
1F
100
AcDbEntity
  8
DIMS
100
AcDbText
 10
1983.948094390354
 20
278.8753309669319
 30
0.0
 40
50.0
  1
365
  7
ｽﾀｲﾙ1
100
AcDbText
  0
TEXT
  5
164E
330
1F
100
AcDbEntity
  8
DIMS
100
AcDbText
 10
1342.845970933929
 20
1263.640721571679
 30
0.0
 40
50.0
  1
片開門扉外形寸法表
  7
ｽﾀｲﾙ1
100
AcDbText
  0
LINE
  5
19C1
330
1F
100
AcDbEntity
  8
CENTER
100
AcDbLine
 10
2426.716522887532
 20
3979.126616681517
 30
0.0
 11
2426.716522887532
 21
2012.47507071891
 31
0.0
  0
LINE
  5
19C2
330
1F
100
AcDbEntity
  8
CENTER
100
AcDbLine
 10
1336.716522887531
 20
3979.126616681517
 30
0.0
 11
1336.716522887531
 21
2017.30652647607
 31
0.0
  0
LINE
  5
19C3
330
1F
100
AcDbEntity
  8
柱
100
AcDbLine
 10
1306.716522887532
 20
3871.73913943084
 30
0.0
 11
1306.716522887532
 21
2091.73913943084
 31
0.0
  0
LINE
  5
19C4
330
1F
100
AcDbEntity
  8
柱
100
AcDbLine
 10
1366.716522887531
 20
3871.73913943084
 30
0.0
 11
1366.716522887531
 21
3258.307044732
 31
0.0
  0
LINE
  5
19C5
330
1F
100
AcDbEntity
  8
柱
100
AcDbLine
 10
2396.716522887532
 20
2621.73913943084
 30
0.0
 11
2396.716522887532
 21
2531.73913943084
 31
0.0
  0
LINE
  5
19C6
330
1F
100
AcDbEntity
  8
柱
100
AcDbLine
 10
2456.716522887532
 20
3871.73913943084
 30
0.0
 11
2456.716522887532
 21
2091.739139430839
 31
0.0
  0
LINE
  5
19C7
330
1F
100
AcDbEntity
  8
柱
100
AcDbLine
 10
2576.716522887532
 20
2406.73913943084
 30
0.0
 11
2576.716522887532
 21
1806.73913943084
 31
0.0
  0
LINE
  5
19C8
330
1F
100
AcDbEntity
  8
柱
100
AcDbLine
 10
1486.716522887532
 20
2406.739139430841
 30
0.0
 11
1486.716522887532
 21
1806.73913943084
 31
0.0
  0
LINE
  5
19C9
330
1F
100
AcDbEntity
  8
柱
100
AcDbLine
 10
1186.716522887531
 20
2406.73913943084
 30
0.0
 11
1186.716522887532
 21
1806.73913943084
 31
0.0
  0
LINE
  5
19CD
330
1F
100
AcDbEntity
  8
柱
100
AcDbLine
 10
2396.716522887532
 20
1806.73913943084
 30
0.0
 11
2279.716522887535
 21
1806.739139430839
 31
0.0
  0
LINE
  5
19CE
330
1F
100
AcDbEntity
  8
柱
100
AcDbLine
 10
2576.716522887532
 20
1806.73913943084
 30
0.0
 11
2279.716522887535
 21
1806.739139430838
 31
0.0
  0
LINE
  5
19D1
330
1F
100
AcDbEntity
  8
柱
100
AcDbLine
 10
2456.716522887532
 20
2091.73913943084
 30
0.0
 11
2399.716522887532
 21
2091.73913943084
 31
0.0
  0
LINE
  5
19D2
330
1F
100
AcDbEntity
  8
柱
100
AcDbLine
 10
1486.716522887532
 20
1806.73913943084
 30
0.0
 11
1186.716522887532
 21
1806.73913943084
 31
0.0
  0
LINE
  5
19D3
330
1F
100
AcDbEntity
  8
柱
100
AcDbLine
 10
1306.716522887532
 20
1806.73913943084
 30
0.0
 11
1186.716522887532
 21
1806.73913943084
 31
0.0
  0
LINE
  5
19D4
330
1F
100
AcDbEntity
  8
柱
100
AcDbLine
 10
1366.716522887531
 20
2091.73913943084
 30
0.0
 11
1306.716522887532
 21
2091.73913943084
 31
0.0
  0
LINE
  5
19D5
330
1F
100
AcDbEntity
  8
柱
100
AcDbLine
 10
2279.716522887532
 20
2396.73913943084
 30
0.0
 11
1486.716522887532
 21
2396.73913943084
 31
0.0
  0
LINE
  5
19D6
330
1F
100
AcDbEntity
  8
柱
100
AcDbLine
 10
1516.716522887532
 20
3788.339139430841
 30
0.0
 11
2241.716522887532
 21
3788.339139430841
 31
0.0
  0
LINE
  5
19D7
330
1F
100
AcDbEntity
  8
柱
100
AcDbLine
 10
2241.716522887532
 20
3773.33913943084
 30
0.0
 11
1516.716522887532
 21
3773.33913943084
 31
0.0
  0
LINE
  5
19D8
330
1F
100
AcDbEntity
  8
柱
100
AcDbLine
 10
1516.716522887532
 20
3188.33913943084
 30
0.0
 11
2241.716522887532
 21
3188.33913943084
 31
0.0
  0
LINE
  5
19D9
330
1F
100
AcDbEntity
  8
柱
100
AcDbLine
 10
2241.716522887532
 20
3173.339139430841
 30
0.0
 11
1516.716522887532
 21
3173.339139430841
 31
0.0
  0
LINE
  5
19DA
330
1F
100
AcDbEntity
  8
柱
100
AcDbLine
 10
1516.716522887532
 20
2473.33913943084
 30
0.0
 11
2241.716522887532
 21
2473.33913943084
 31
0.0
  0
LINE
  5
19DB
330
1F
100
AcDbEntity
  8
柱
100
AcDbLine
 10
2241.716522887532
 20
2458.33913943084
 30
0.0
 11
1516.716522887532
 21
2458.33913943084
 31
0.0
  0
LINE
  5
19DC
330
1F
100
AcDbEntity
  8
メッシュ
100
AcDbLine
 10
1411.71652288753
 20
3818.33913943084
 30
0.0
 11
2346.716522887532
 21
3818.33913943084
 31
0.0
  0
LINE
  5
19DD
330
1F
100
AcDbEntity
  8
メッシュ
100
AcDbLine
 10
1411.716522887531
 20
3903.33913943084
 30
0.0
 11
2346.716522887532
 21
3903.33913943084
 31
0.0
  0
LINE
  5
19DE
330
1F
100
AcDbEntity
  8
メッシュ
100
AcDbLine
 10
1411.716522887531
 20
3883.33913943084
 30
0.0
 11
2346.716522887532
 21
3883.33913943084
 31
0.0
  0
LINE
  5
19DF
330
1F
100
AcDbEntity
  8
メッシュ
100
AcDbLine
 10
1411.716522887531
 20
3868.33913943084
 30
0.0
 11
2346.716522887532
 21
3868.33913943084
 31
0.0
  0
LINE
  5
19E0
330
1F
100
AcDbEntity
  8
メッシュ
100
AcDbLine
 10
1411.716522887531
 20
3668.33913943084
 30
0.0
 11
2346.716522887532
 21
3668.33913943084
 31
0.0
  0
LINE
  5
19E1
330
1F
100
AcDbEntity
  8
メッシュ
100
AcDbLine
 10
1411.716522887531
 20
3548.33913943084
 30
0.0
 11
2346.716522887532
 21
3548.33913943084
 31
0.0
  0
LINE
  5
19E2
330
1F
100
AcDbEntity
  8
メッシュ
100
AcDbLine
 10
1411.716522887531
 20
3428.33913943084
 30
0.0
 11
2346.716522887532
 21
3428.33913943084
 31
0.0
  0
LINE
  5
19E3
330
1F
100
AcDbEntity
  8
メッシュ
100
AcDbLine
 10
1411.716522887531
 20
3308.33913943084
 30
0.0
 11
2346.716522887532
 21
3308.33913943084
 31
0.0
  0
LINE
  5
19E4
330
1F
100
AcDbEntity
  8
柱
100
AcDbLine
 10
1516.716522887532
 20
3188.33913943084
 30
0.0
 11
2241.716522887532
 21
3188.33913943084
 31
0.0
  0
LINE
  5
19EA
330
1F
100
AcDbEntity
  8
メッシュ
100
AcDbLine
 10
1411.716522887531
 20
2443.33913943084
 30
0.0
 11
2346.716522887532
 21
2443.339139430839
 31
0.0
  0
LINE
  5
19F2
330
1F
100
AcDbEntity
  8
柱
100
AcDbLine
 10
2673.292066404671
 20
2396.73913943084
 30
0.0
 11
2576.716522887532
 21
2396.73913943084
 31
0.0
  0
LINE
  5
19F3
330
1F
100
AcDbEntity
  8
メッシュ
100
AcDbLine
 10
1644.316522887531
 20
3905.33913943084
 30
0.0
 11
1644.316522887531
 21
2440.863202956076
 31
0.0
  0
LINE
  5
19F4
330
1F
100
AcDbEntity
  8
メッシュ
100
AcDbLine
 10
1696.516522887531
 20
3905.33913943084
 30
0.0
 11
1696.516522887532
 21
2440.863202956076
 31
0.0
  0
LINE
  5
19F5
330
1F
100
AcDbEntity
  8
メッシュ
100
AcDbLine
 10
1748.716522887531
 20
3905.33913943084
 30
0.0
 11
1748.716522887531
 21
2440.863202956076
 31
0.0
  0
LINE
  5
19F6
330
1F
100
AcDbEntity
  8
メッシュ
100
AcDbLine
 10
1800.916522887531
 20
3905.33913943084
 30
0.0
 11
1800.916522887531
 21
2440.863202956076
 31
0.0
  0
LINE
  5
19F7
330
1F
100
AcDbEntity
  8
メッシュ
100
AcDbLine
 10
1853.116522887532
 20
3905.33913943084
 30
0.0
 11
1853.116522887532
 21
2440.863202956076
 31
0.0
  0
LINE
  5
19F8
330
1F
100
AcDbEntity
  8
メッシュ
100
AcDbLine
 10
1905.316522887531
 20
3905.33913943084
 30
0.0
 11
1905.316522887532
 21
2440.863202956076
 31
0.0
  0
LINE
  5
19F9
330
1F
100
AcDbEntity
  8
柱
100
AcDbLine
 10
2376.716522887532
 20
3871.73913943084
 30
0.0
 11
2376.716522887532
 21
2441.73913943084
 31
0.0
  0
LINE
  5
19FA
330
1F
100
AcDbEntity
  8
柱
100
AcDbLine
 10
2351.716522887532
 20
3871.73913943084
 30
0.0
 11
2351.716522887532
 21
2441.739139430838
 31
0.0
  0
LINE
  5
19FC
330
1F
100
AcDbEntity
  8
メッシュ
100
AcDbLine
 10
1957.516522887532
 20
3905.33913943084
 30
0.0
 11
1957.516522887532
 21
2440.863202956076
 31
0.0
  0
LINE
  5
19FD
330
1F
100
AcDbEntity
  8
メッシュ
100
AcDbLine
 10
2009.716522887532
 20
3905.33913943084
 30
0.0
 11
2009.716522887532
 21
2440.863202956076
 31
0.0
  0
LINE
  5
19FE
330
1F
100
AcDbEntity
  8
メッシュ
100
AcDbLine
 10
2061.916522887532
 20
3905.33913943084
 30
0.0
 11
2061.916522887532
 21
2440.863202956076
 31
0.0
  0
LINE
  5
19FF
330
1F
100
AcDbEntity
  8
メッシュ
100
AcDbLine
 10
2114.116522887533
 20
3905.33913943084
 30
0.0
 11
2114.116522887533
 21
2440.863202956076
 31
0.0
  0
LINE
  5
1A00
330
1F
100
AcDbEntity
  8
メッシュ
100
AcDbLine
 10
2166.316522887532
 20
3905.33913943084
 30
0.0
 11
2166.316522887532
 21
2440.863202956076
 31
0.0
  0
LINE
  5
1A01
330
1F
100
AcDbEntity
  8
メッシュ
100
AcDbLine
 10
2218.516522887532
 20
3905.33913943084
 30
0.0
 11
2218.516522887532
 21
2440.863202956076
 31
0.0
  0
LINE
  5
1A02
330
1F
100
AcDbEntity
  8
メッシュ
100
AcDbLine
 10
2270.716522887532
 20
3905.33913943084
 30
0.0
 11
2270.716522887532
 21
2440.863202956076
 31
0.0
  0
LINE
  5
1A03
330
1F
100
AcDbEntity
  8
メッシュ
100
AcDbLine
 10
2322.916522887533
 20
3905.33913943084
 30
0.0
 11
2322.916522887533
 21
2440.863202956076
 31
0.0
  0
LINE
  5
1A04
330
1F
100
AcDbEntity
  8
柱
100
AcDbLine
 10
2344.216522887532
 20
3188.33913943084
 30
0.0
 11
2241.716522887532
 21
3188.33913943084
 31
0.0
  0
LINE
  5
1A05
330
1F
100
AcDbEntity
  8
柱
100
AcDbLine
 10
2344.216522887532
 20
3173.339139430839
 30
0.0
 11
2241.716522887532
 21
3173.339139430841
 31
0.0
  0
LINE
  5
1A06
330
1F
100
AcDbEntity
  8
柱
100
AcDbLine
 10
2399.716522887532
 20
2406.73913943084
 30
0.0
 11
2279.716522887532
 21
2406.73913943084
 31
0.0
  0
LINE
  5
1A07
330
1F
100
AcDbEntity
  8
柱
100
AcDbLine
 10
2344.216522887532
 20
2473.33913943084
 30
0.0
 11
2241.716522887532
 21
2473.33913943084
 31
0.0
  0
LINE
  5
1A08
330
1F
100
AcDbEntity
  8
柱
100
AcDbLine
 10
2344.216522887532
 20
2458.33913943084
 30
0.0
 11
2241.716522887532
 21
2458.33913943084
 31
0.0
  0
LINE
  5
1A0D
330
1F
100
AcDbEntity
  8
柱
100
AcDbLine
 10
2466.716522887532
 20
2546.73913943084
 30
0.0
 11
2396.716522887546
 21
2546.73913943084
 31
0.0
  0
LINE
  5
1A0E
330
1F
100
AcDbEntity
  8
柱
100
AcDbLine
 10
2516.716522887532
 20
2472.73913943084
 30
0.0
 11
2516.716522887532
 21
2450.739139430841
 31
0.0
  0
LINE
  5
1A0F
330
1F
100
AcDbEntity
  8
柱
100
AcDbLine
 10
2576.716522887532
 20
2406.73913943084
 30
0.0
 11
2456.716522887532
 21
2406.73913943084
 31
0.0
  0
LINE
  5
1A10
330
1F
100
AcDbEntity
  8
柱
100
AcDbLine
 10
2456.716522887532
 20
2450.739139430841
 30
0.0
 11
2516.716522887531
 21
2450.739139430841
 31
0.0
  0
LINE
  5
1A11
330
1F
100
AcDbEntity
  8
柱
100
AcDbLine
 10
2456.716522887532
 20
2472.73913943084
 30
0.0
 11
2516.716522887531
 21
2472.73913943084
 31
0.0
  0
ARC
  5
1A12
330
1F
100
AcDbEntity
  8
柱
100
AcDbCircle
 10
2504.716522887532
 20
2461.73913943084
 30
0.0
 40
5.0
100
AcDbArc
 50
270.0
 51
90.0
  0
ARC
  5
1A13
330
1F
100
AcDbEntity
  8
柱
100
AcDbCircle
 10
2471.716522887531
 20
2461.739139430839
 30
0.0
 40
5.0
100
AcDbArc
 50
89.99999999999738
 51
270.0000000000013
  0
LINE
  5
1A14
330
1F
100
AcDbEntity
  8
柱
100
AcDbLine
 10
2504.716522887532
 20
2466.73913943084
 30
0.0
 11
2471.716522887531
 21
2466.739139430839
 31
0.0
  0
LINE
  5
1A15
330
1F
100
AcDbEntity
  8
柱
100
AcDbLine
 10
2504.716522887532
 20
2456.73913943084
 30
0.0
 11
2471.716522887531
 21
2456.739139430839
 31
0.0
  0
LINE
  5
1A16
330
1F
100
AcDbEntity
  8
柱
100
AcDbLine
 10
2471.716522887531
 20
2461.739139430839
 30
0.0
 11
2387.685983028049
 21
2461.739139430839
 31
0.0
  0
LINE
  5
1A17
330
1F
100
AcDbEntity
  8
柱
100
AcDbLine
 10
2326.716522887532
 20
2483.33913943084
 30
0.0
 11
2326.716522887532
 21
2448.33913943084
 31
0.0
  0
LINE
  5
1A18
330
1F
100
AcDbEntity
  8
柱
100
AcDbLine
 10
2376.716522887584
 20
2441.73913943084
 30
0.0
 11
2351.716522887584
 21
2441.739139430839
 31
0.0
  0
LINE
  5
1A19
330
1F
100
AcDbEntity
  8
柱
100
AcDbLine
 10
2396.716522887546
 20
2546.73913943084
 30
0.0
 11
2369.447951257205
 21
2546.73913943084
 31
0.0
  0
LINE
  5
1A1A
330
1F
100
AcDbEntity
  8
柱
100
AcDbLine
 10
2351.716522887532
 20
2471.73913943084
 30
0.0
 11
2344.216522887532
 21
2471.73913943084
 31
0.0
  0
LINE
  5
1A1B
330
1F
100
AcDbEntity
  8
柱
100
AcDbLine
 10
2344.216522887532
 20
2473.33913943084
 30
0.0
 11
2344.216522887532
 21
2471.73913943084
 31
0.0
  0
LINE
  5
1A1C
330
1F
100
AcDbEntity
  8
柱
100
AcDbLine
 10
2344.216522887532
 20
2471.73913943084
 30
0.0
 11
2344.216522887532
 21
2458.33913943084
 31
0.0
  0
LINE
  5
1A1D
330
1F
100
AcDbEntity
  8
柱
100
AcDbLine
 10
2351.716522887532
 20
2461.73913943084
 30
0.0
 11
2344.216522887532
 21
2461.73913943084
 31
0.0
  0
LINE
  5
1A1E
330
1F
100
AcDbEntity
  8
柱
100
AcDbLine
 10
2466.716522887532
 20
2606.73913943084
 30
0.0
 11
2396.716522887546
 21
2606.73913943084
 31
0.0
  0
LINE
  5
1A1F
330
1F
100
AcDbEntity
  8
柱
100
AcDbLine
 10
2466.716522887532
 20
2606.73913943084
 30
0.0
 11
2396.716522887546
 21
2606.73913943084
 31
0.0
  0
LINE
  5
1A20
330
1F
100
AcDbEntity
  8
柱
100
AcDbLine
 10
2456.716522887532
 20
2666.73913943084
 30
0.0
 11
2456.716522887532
 21
2666.73913943084
 31
0.0
  0
LINE
  5
1A21
330
1F
100
AcDbEntity
  8
柱
100
AcDbLine
 10
2466.716522887532
 20
2606.73913943084
 30
0.0
 11
2456.716522887532
 21
2606.73913943084
 31
0.0
  0
LINE
  5
1A22
330
1F
100
AcDbEntity
  8
柱
100
AcDbLine
 10
2396.716522887546
 20
2606.73913943084
 30
0.0
 11
2369.447951257205
 21
2606.73913943084
 31
0.0
  0
LINE
  5
1A24
330
1F
100
AcDbEntity
  8
部品
100
AcDbLine
 10
2387.685983028049
 20
3176.73913943084
 30
0.0
 11
2468.716725668034
 21
3176.73913943084
 31
0.0
  0
LINE
  5
1A25
330
1F
100
AcDbEntity
  8
柱
100
AcDbLine
 10
2516.716522887532
 20
3187.739139430842
 30
0.0
 11
2516.716522887532
 21
3165.739139430842
 31
0.0
  0
LINE
  5
1A26
330
1F
100
AcDbEntity
  8
部品
100
AcDbLine
 10
2456.716522887532
 20
3165.73913943084
 30
0.0
 11
2516.716522887532
 21
3165.739139430841
 31
0.0
  0
LINE
  5
1A27
330
1F
100
AcDbEntity
  8
部品
100
AcDbLine
 10
2456.716522887532
 20
3187.73913943084
 30
0.0
 11
2516.716522887532
 21
3187.739139430842
 31
0.0
  0
ARC
  5
1A28
330
1F
100
AcDbEntity
  8
柱
100
AcDbCircle
 10
2504.716522887532
 20
3176.73913943084
 30
0.0
 40
5.0
100
AcDbArc
 50
269.9999999999987
 51
90.00000000000129
  0
ARC
  5
1A29
330
1F
100
AcDbEntity
  8
柱
100
AcDbCircle
 10
2471.716522887532
 20
3176.73913943084
 30
0.0
 40
5.0
100
AcDbArc
 50
90.0
 51
270.0
  0
LINE
  5
1A2A
330
1F
100
AcDbEntity
  8
柱
100
AcDbLine
 10
2504.716522887532
 20
3181.73913943084
 30
0.0
 11
2471.716522887532
 21
3181.73913943084
 31
0.0
  0
LINE
  5
1A2B
330
1F
100
AcDbEntity
  8
柱
100
AcDbLine
 10
2504.716522887532
 20
3171.73913943084
 30
0.0
 11
2471.716522887532
 21
3171.73913943084
 31
0.0
  0
LINE
  5
1A2C
330
1F
100
AcDbEntity
  8
柱
100
AcDbLine
 10
2326.716522887532
 20
3198.33913943084
 30
0.0
 11
2326.716522887532
 21
3163.33913943084
 31
0.0
  0
LINE
  5
1A2D
330
1F
100
AcDbEntity
  8
柱
100
AcDbLine
 10
2351.716522887532
 20
3186.73913943084
 30
0.0
 11
2344.216522887532
 21
3186.73913943084
 31
0.0
  0
LINE
  5
1A2E
330
1F
100
AcDbEntity
  8
柱
100
AcDbLine
 10
2344.216522887532
 20
3188.33913943084
 30
0.0
 11
2344.216522887532
 21
3176.73913943084
 31
0.0
  0
LINE
  5
1A2F
330
1F
100
AcDbEntity
  8
柱
100
AcDbLine
 10
2344.216522887532
 20
3176.73913943084
 30
0.0
 11
2351.716522887532
 21
3176.73913943084
 31
0.0
  0
LINE
  5
1A30
330
1F
100
AcDbEntity
  8
柱
100
AcDbLine
 10
2344.216522887532
 20
3176.73913943084
 30
0.0
 11
2344.216522887532
 21
3173.339139430841
 31
0.0
  0
LINE
  5
1A31
330
1F
100
AcDbEntity
  8
柱
100
AcDbLine
 10
2251.716522887532
 20
2483.33913943084
 30
0.0
 11
2251.716522887532
 21
2448.33913943084
 31
0.0
  0
LINE
  5
1A32
330
1F
100
AcDbEntity
  8
柱
100
AcDbLine
 10
2266.716522887532
 20
2483.33913943084
 30
0.0
 11
2266.716522887532
 21
2448.33913943084
 31
0.0
  0
LINE
  5
1A33
330
1F
100
AcDbEntity
  8
柱
100
AcDbLine
 10
2262.716522887532
 20
2478.33913943084
 30
0.0
 11
2241.716522887532
 21
2478.33913943084
 31
0.0
  0
LINE
  5
1A34
330
1F
100
AcDbEntity
  8
柱
100
AcDbLine
 10
1879.216522887531
 20
2487.041343735227
 30
0.0
 11
1879.216522887531
 21
2449.182072843123
 31
0.0
  0
LINE
  5
1A35
330
1F
100
AcDbEntity
  8
柱
100
AcDbLine
 10
1868.216522887531
 20
2478.33913943084
 30
0.0
 11
1890.216522887532
 21
2478.339139430839
 31
0.0
  0
LINE
  5
1A36
330
1F
100
AcDbEntity
  8
柱
100
AcDbLine
 10
2251.716522887532
 20
3198.339139430839
 30
0.0
 11
2251.716522887531
 21
3163.33913943084
 31
0.0
  0
LINE
  5
1A37
330
1F
100
AcDbEntity
  8
柱
100
AcDbLine
 10
2266.716522887531
 20
3198.339139430839
 30
0.0
 11
2266.716522887531
 21
3163.33913943084
 31
0.0
  0
LINE
  5
1A38
330
1F
100
AcDbEntity
  8
柱
100
AcDbLine
 10
2262.716522887532
 20
3193.33913943084
 30
0.0
 11
2241.716522887532
 21
3193.33913943084
 31
0.0
  0
LINE
  5
1A39
330
1F
100
AcDbEntity
  8
柱
100
AcDbLine
 10
1879.216522887531
 20
3205.745242463348
 30
0.0
 11
1879.216522887531
 21
3161.163310950609
 31
0.0
  0
LINE
  5
1A3A
330
1F
100
AcDbEntity
  8
柱
100
AcDbLine
 10
1868.216522887531
 20
3193.33913943084
 30
0.0
 11
1890.216522887532
 21
3193.33913943084
 31
0.0
  0
LINE
  5
1A3B
330
1F
100
AcDbEntity
  8
柱
100
AcDbLine
 10
2344.216522887532
 20
3788.339139430841
 30
0.0
 11
2241.716522887532
 21
3788.339139430841
 31
0.0
  0
LINE
  5
1A3C
330
1F
100
AcDbEntity
  8
柱
100
AcDbLine
 10
2344.216522887532
 20
3773.33913943084
 30
0.0
 11
2241.716522887532
 21
3773.33913943084
 31
0.0
  0
LINE
  5
1A3D
330
1F
100
AcDbEntity
  8
柱
100
AcDbLine
 10
2466.716522887532
 20
3746.73913943084
 30
0.0
 11
2396.716522887546
 21
3746.73913943084
 31
0.0
  0
LINE
  5
1A3E
330
1F
100
AcDbEntity
  8
柱
100
AcDbLine
 10
2396.716522887546
 20
3746.73913943084
 30
0.0
 11
2369.447951257205
 21
3746.73913943084
 31
0.0
  0
LINE
  5
1A41
330
1F
100
AcDbEntity
  8
柱
100
AcDbLine
 10
2456.716522887546
 20
3871.73913943084
 30
0.0
 11
2396.716522887546
 21
3871.73913943084
 31
0.0
  0
LINE
  5
1A42
330
1F
100
AcDbEntity
  8
柱
100
AcDbLine
 10
2466.716522887532
 20
3806.73913943084
 30
0.0
 11
2396.716522887546
 21
3806.73913943084
 31
0.0
  0
LINE
  5
1A43
330
1F
100
AcDbEntity
  8
柱
100
AcDbLine
 10
2516.716522887532
 20
3817.739139430841
 30
0.0
 11
2516.716522887532
 21
3795.739139430839
 31
0.0
  0
LINE
  5
1A44
330
1F
100
AcDbEntity
  8
柱
100
AcDbLine
 10
2516.716522887532
 20
3817.73913943084
 30
0.0
 11
2456.716522887532
 21
3817.73913943084
 31
0.0
  0
LINE
  5
1A45
330
1F
100
AcDbEntity
  8
柱
100
AcDbLine
 10
2516.716522887532
 20
3795.739139430839
 30
0.0
 11
2456.716522887532
 21
3795.739139430839
 31
0.0
  0
ARC
  5
1A46
330
1F
100
AcDbEntity
  8
柱
100
AcDbCircle
 10
2504.716522887532
 20
3806.73913943084
 30
0.0
 40
5.0
100
AcDbArc
 50
270.0
 51
90.0
  0
ARC
  5
1A47
330
1F
100
AcDbEntity
  8
柱
100
AcDbCircle
 10
2471.716522887532
 20
3806.73913943084
 30
0.0
 40
5.0
100
AcDbArc
 50
89.99999999999738
 51
270.0000000000013
  0
LINE
  5
1A48
330
1F
100
AcDbEntity
  8
柱
100
AcDbLine
 10
2504.716522887532
 20
3811.73913943084
 30
0.0
 11
2471.716522887532
 21
3811.73913943084
 31
0.0
  0
LINE
  5
1A49
330
1F
100
AcDbEntity
  8
柱
100
AcDbLine
 10
2504.716522887532
 20
3801.73913943084
 30
0.0
 11
2471.716522887532
 21
3801.73913943084
 31
0.0
  0
LINE
  5
1A4A
330
1F
100
AcDbEntity
  8
柱
100
AcDbLine
 10
2376.716522887532
 20
3871.73913943084
 30
0.0
 11
2351.716522887532
 21
3871.739139430839
 31
0.0
  0
LINE
  5
1A4B
330
1F
100
AcDbEntity
  8
柱
100
AcDbLine
 10
2396.716522887532
 20
3806.73913943084
 30
0.0
 11
2370.150632231796
 21
3806.73913943084
 31
0.0
  0
LINE
  5
1A4C
330
1F
100
AcDbEntity
  8
柱
100
AcDbLine
 10
2351.716522887532
 20
3786.73913943084
 30
0.0
 11
2344.216522887532
 21
3786.73913943084
 31
0.0
  0
LINE
  5
1A4D
330
1F
100
AcDbEntity
  8
柱
100
AcDbLine
 10
2326.716522887532
 20
3796.73913943084
 30
0.0
 11
2326.716522887531
 21
3763.339139430841
 31
0.0
  0
LINE
  5
1A4E
330
1F
100
AcDbEntity
  8
柱
100
AcDbLine
 10
2344.216522887532
 20
3788.339139430841
 30
0.0
 11
2344.216522887531
 21
3773.339139430841
 31
0.0
  0
LINE
  5
1A4F
330
1F
100
AcDbEntity
  8
柱
100
AcDbLine
 10
2351.716522887532
 20
3776.73913943084
 30
0.0
 11
2344.216522887532
 21
3776.73913943084
 31
0.0
  0
LINE
  5
1A50
330
1F
100
AcDbEntity
  8
柱
100
AcDbLine
 10
2266.716522887531
 20
3796.73913943084
 30
0.0
 11
2266.716522887531
 21
3763.339139430841
 31
0.0
  0
LINE
  5
1A51
330
1F
100
AcDbEntity
  8
柱
100
AcDbLine
 10
2251.716522887531
 20
3796.73913943084
 30
0.0
 11
2251.716522887531
 21
3763.339139430841
 31
0.0
  0
LINE
  5
1A52
330
1F
100
AcDbEntity
  8
柱
100
AcDbLine
 10
2262.716522887531
 20
3793.33913943084
 30
0.0
 11
2241.716522887532
 21
3793.33913943084
 31
0.0
  0
LINE
  5
1A53
330
1F
100
AcDbEntity
  8
柱
100
AcDbLine
 10
1868.216522887531
 20
3793.33913943084
 30
0.0
 11
1890.216522887532
 21
3793.33913943084
 31
0.0
  0
LINE
  5
1A54
330
1F
100
AcDbEntity
  8
柱
100
AcDbLine
 10
1879.216522887531
 20
3788.339139430841
 30
0.0
 11
1879.216522887531
 21
3806.638620157681
 31
0.0
  0
LINE
  5
1A55
330
1F
100
AcDbEntity
  8
柱
100
AcDbLine
 10
1879.216522887531
 20
3806.63862015768
 30
0.0
 11
1879.216522887531
 21
3766.302584838673
 31
0.0
  0
LINE
  5
1A5A
330
1F
100
AcDbEntity
  8
柱
100
AcDbLine
 10
1381.716522887532
 20
3871.73913943084
 30
0.0
 11
1381.716522887532
 21
3258.307044732
 31
0.0
  0
LINE
  5
1A5B
330
1F
100
AcDbEntity
  8
柱
100
AcDbLine
 10
1406.716522887531
 20
3871.73913943084
 30
0.0
 11
1406.716522887531
 21
2441.73913943084
 31
0.0
  0
LINE
  5
1A5C
330
1F
100
AcDbEntity
  8
メッシュ
100
AcDbLine
 10
1435.516522887531
 20
3905.33913943084
 30
0.0
 11
1435.516522887531
 21
2440.863202956076
 31
0.0
  0
LINE
  5
1A5D
330
1F
100
AcDbEntity
  8
メッシュ
100
AcDbLine
 10
1487.716522887532
 20
3905.33913943084
 30
0.0
 11
1487.716522887532
 21
3065.339139430841
 31
0.0
  0
LINE
  5
1A5E
330
1F
100
AcDbEntity
  8
メッシュ
100
AcDbLine
 10
1539.916522887531
 20
3905.33913943084
 30
0.0
 11
1539.916522887531
 21
3065.339139430841
 31
0.0
  0
LINE
  5
1A5F
330
1F
100
AcDbEntity
  8
メッシュ
100
AcDbLine
 10
1592.116522887531
 20
3905.33913943084
 30
0.0
 11
1592.116522887531
 21
3065.339139430841
 31
0.0
  0
LINE
  5
1A60
330
1F
100
AcDbEntity
  8
メッシュ
100
AcDbLine
 10
1592.116522887531
 20
3198.307044732001
 30
0.0
 11
1592.116522887531
 21
2440.863202956076
 31
0.0
  0
LINE
  5
1A61
330
1F
100
AcDbEntity
  8
メッシュ
100
AcDbLine
 10
1539.916522887531
 20
3198.307044732001
 30
0.0
 11
1539.916522887531
 21
2440.863202956076
 31
0.0
  0
LINE
  5
1A62
330
1F
100
AcDbEntity
  8
メッシュ
100
AcDbLine
 10
1487.716522887532
 20
3198.307044732001
 30
0.0
 11
1487.716522887532
 21
2440.863202956076
 31
0.0
  0
LINE
  5
1A63
330
1F
100
AcDbEntity
  8
柱
100
AcDbLine
 10
1306.716522887532
 20
2406.73913943084
 30
0.0
 11
1186.716522887531
 21
2406.739139430841
 31
0.0
  0
LINE
  5
1A64
330
1F
100
AcDbEntity
  8
柱
100
AcDbLine
 10
1371.716522887532
 20
2461.739139430842
 30
0.0
 11
1286.716522887531
 21
2461.739139430839
 31
0.0
  0
LINE
  5
1A65
330
1F
100
AcDbEntity
  8
柱
100
AcDbLine
 10
1306.716522887532
 20
2472.73913943084
 30
0.0
 11
1246.716522887531
 21
2472.739139430839
 31
0.0
  0
LINE
  5
1A66
330
1F
100
AcDbEntity
  8
柱
100
AcDbLine
 10
1306.716522887532
 20
2450.73913943084
 30
0.0
 11
1246.716522887531
 21
2450.739139430839
 31
0.0
  0
ARC
  5
1A67
330
1F
100
AcDbEntity
  8
柱
100
AcDbCircle
 10
1291.716522887532
 20
2461.739139430839
 30
0.0
 40
5.0
100
AcDbArc
 50
269.9999999999948
 51
90.00000000000261
  0
LINE
  5
1A68
330
1F
100
AcDbEntity
  8
柱
100
AcDbLine
 10
1486.716522887532
 20
2406.73913943084
 30
0.0
 11
1366.716522887531
 21
2406.73913943084
 31
0.0
  0
LINE
  5
1A69
330
1F
100
AcDbEntity
  8
柱
100
AcDbLine
 10
1414.216522887531
 20
2473.33913943084
 30
0.0
 11
1516.716522887532
 21
2473.33913943084
 31
0.0
  0
LINE
  5
1A6A
330
1F
100
AcDbEntity
  8
柱
100
AcDbLine
 10
1414.216522887531
 20
2458.33913943084
 30
0.0
 11
1516.716522887532
 21
2458.33913943084
 31
0.0
  0
LINE
  5
1A6B
330
1F
100
AcDbEntity
  8
柱
100
AcDbLine
 10
1506.716522887532
 20
2483.33913943084
 30
0.0
 11
1506.716522887532
 21
2448.33913943084
 31
0.0
  0
LINE
  5
1A6C
330
1F
100
AcDbEntity
  8
柱
100
AcDbLine
 10
1491.716522887531
 20
2483.33913943084
 30
0.0
 11
1491.716522887531
 21
2448.33913943084
 31
0.0
  0
LINE
  5
1A6D
330
1F
100
AcDbEntity
  8
柱
100
AcDbLine
 10
1495.716522887532
 20
2478.339139430841
 30
0.0
 11
1516.716522887532
 21
2478.33913943084
 31
0.0
  0
LINE
  5
1A6E
330
1F
100
AcDbEntity
  8
柱
100
AcDbLine
 10
1431.716522887532
 20
2483.339139430841
 30
0.0
 11
1431.716522887532
 21
2448.33913943084
 31
0.0
  0
LINE
  5
1A6F
330
1F
100
AcDbEntity
  8
柱
100
AcDbLine
 10
1406.716522887531
 20
2441.73913943084
 30
0.0
 11
1381.716522887532
 21
2441.73913943084
 31
0.0
  0
LINE
  5
1A70
330
1F
100
AcDbEntity
  8
柱
100
AcDbLine
 10
1406.716522887531
 20
2471.73913943084
 30
0.0
 11
1414.216522887532
 21
2471.73913943084
 31
0.0
  0
LINE
  5
1A71
330
1F
100
AcDbEntity
  8
柱
100
AcDbLine
 10
1406.716522887531
 20
2461.73913943084
 30
0.0
 11
1414.216522887532
 21
2461.73913943084
 31
0.0
  0
LINE
  5
1A72
330
1F
100
AcDbEntity
  8
柱
100
AcDbLine
 10
1414.216522887532
 20
2473.339139430841
 30
0.0
 11
1414.216522887532
 21
2458.33913943084
 31
0.0
  0
LINE
  5
1A73
330
1F
100
AcDbEntity
  8
柱
100
AcDbLine
 10
1186.716522887531
 20
2396.73913943084
 30
0.0
 11
1108.498649230529
 21
2396.739139430841
 31
0.0
  0
LINE
  5
1A74
330
1F
100
AcDbEntity
  8
柱
100
AcDbLine
 10
1246.716522887531
 20
2472.739139430839
 30
0.0
 11
1246.716522887531
 21
2450.739139430839
 31
0.0
  0
ARC
  5
1A75
330
1F
100
AcDbEntity
  8
柱
100
AcDbCircle
 10
1258.716522887531
 20
2461.73913943084
 30
0.0
 40
5.0
100
AcDbArc
 50
90.0
 51
270.0
  0
LINE
  5
1A76
330
1F
100
AcDbEntity
  8
柱
100
AcDbLine
 10
1291.716522887531
 20
2466.739139430839
 30
0.0
 11
1258.716522887531
 21
2466.739139430841
 31
0.0
  0
LINE
  5
1A77
330
1F
100
AcDbEntity
  8
柱
100
AcDbLine
 10
1291.716522887531
 20
2456.739139430839
 30
0.0
 11
1258.716522887531
 21
2456.73913943084
 31
0.0
  0
LINE
  5
1A78
330
1F
100
AcDbEntity
  8
柱
100
AcDbLine
 10
1371.716522887532
 20
3176.73913943084
 30
0.0
 11
1286.716522887531
 21
3176.73913943084
 31
0.0
  0
LINE
  5
1A79
330
1F
100
AcDbEntity
  8
柱
100
AcDbLine
 10
1306.716522887532
 20
3187.73913943084
 30
0.0
 11
1246.716522887531
 21
3187.73913943084
 31
0.0
  0
LINE
  5
1A7A
330
1F
100
AcDbEntity
  8
柱
100
AcDbLine
 10
1306.716522887532
 20
3165.73913943084
 30
0.0
 11
1246.716522887531
 21
3165.73913943084
 31
0.0
  0
ARC
  5
1A7B
330
1F
100
AcDbEntity
  8
柱
100
AcDbCircle
 10
1291.716522887539
 20
3176.73913943084
 30
0.0
 40
5.0
100
AcDbArc
 50
269.9999999999948
 51
90.00000000000261
  0
LINE
  5
1A7C
330
1F
100
AcDbEntity
  8
柱
100
AcDbLine
 10
1414.216522887531
 20
3188.33913943084
 30
0.0
 11
1516.716522887532
 21
3188.33913943084
 31
0.0
  0
LINE
  5
1A7D
330
1F
100
AcDbEntity
  8
柱
100
AcDbLine
 10
1414.216522887531
 20
3173.339139430841
 30
0.0
 11
1516.716522887532
 21
3173.339139430841
 31
0.0
  0
LINE
  5
1A83
330
1F
100
AcDbEntity
  8
柱
100
AcDbLine
 10
1491.716522887531
 20
3198.33913943084
 30
0.0
 11
1491.716522887531
 21
3163.33913943084
 31
0.0
  0
LINE
  5
1A84
330
1F
100
AcDbEntity
  8
柱
100
AcDbLine
 10
1506.716522887532
 20
3198.33913943084
 30
0.0
 11
1506.716522887531
 21
3163.33913943084
 31
0.0
  0
LINE
  5
1A91
330
1F
100
AcDbEntity
  8
柱
100
AcDbLine
 10
1431.716522887532
 20
3198.33913943084
 30
0.0
 11
1431.716522887531
 21
3163.33913943084
 31
0.0
  0
LINE
  5
1A92
330
1F
100
AcDbEntity
  8
柱
100
AcDbLine
 10
1406.716522887531
 20
3186.73913943084
 30
0.0
 11
1414.216522887531
 21
3186.73913943084
 31
0.0
  0
LINE
  5
1A93
330
1F
100
AcDbEntity
  8
柱
100
AcDbLine
 10
1406.716522887531
 20
3176.73913943084
 30
0.0
 11
1414.216522887531
 21
3176.73913943084
 31
0.0
  0
LINE
  5
1A94
330
1F
100
AcDbEntity
  8
柱
100
AcDbLine
 10
1414.216522887532
 20
3188.33913943084
 30
0.0
 11
1414.216522887532
 21
3173.339139430841
 31
0.0
  0
LINE
  5
1A99
330
1F
100
AcDbEntity
  8
柱
100
AcDbLine
 10
1246.716522887532
 20
3187.73913943084
 30
0.0
 11
1246.716522887532
 21
3165.73913943084
 31
0.0
  0
ARC
  5
1A9A
330
1F
100
AcDbEntity
  8
柱
100
AcDbCircle
 10
1258.716522887539
 20
3176.73913943084
 30
0.0
 40
5.0
100
AcDbArc
 50
90.0
 51
270.0
  0
LINE
  5
1A9B
330
1F
100
AcDbEntity
  8
柱
100
AcDbLine
 10
1291.716522887539
 20
3181.73913943084
 30
0.0
 11
1258.716522887539
 21
3181.73913943084
 31
0.0
  0
LINE
  5
1A9C
330
1F
100
AcDbEntity
  8
柱
100
AcDbLine
 10
1291.716522887539
 20
3171.73913943084
 30
0.0
 11
1258.716522887539
 21
3171.73913943084
 31
0.0
  0
LINE
  5
1A9D
330
1F
100
AcDbEntity
  8
部品
100
AcDbLine
 10
1374.216522887532
 20
3304.239139430838
 30
0.0
 11
1381.716522887531
 21
3304.239139430838
 31
0.0
  0
LINE
  5
1A9E
330
1F
100
AcDbEntity
  8
部品
100
AcDbLine
 10
1374.216522887532
 20
3324.239139430841
 30
0.0
 11
1381.716522887531
 21
3324.239139430841
 31
0.0
  0
LINE
  5
1A9F
330
1F
100
AcDbEntity
  8
部品
100
AcDbLine
 10
1366.716522887531
 20
3334.239139430842
 30
0.0
 11
1381.716522887531
 21
3334.239139430842
 31
0.0
  0
LINE
  5
1AA0
330
1F
100
AcDbEntity
  8
部品
100
AcDbLine
 10
1366.716522887531
 20
3294.239139430838
 30
0.0
 11
1381.716522887531
 21
3294.239139430838
 31
0.0
  0
LINE
  5
1AA1
330
1F
100
AcDbEntity
  8
部品
100
AcDbLine
 10
1381.716522887531
 20
3324.239139430841
 30
0.0
 11
1387.867771860827
 21
3324.239139430841
 31
0.0
  0
LINE
  5
1AA2
330
1F
100
AcDbEntity
  8
部品
100
AcDbLine
 10
1381.716522887531
 20
3304.239139430838
 30
0.0
 11
1388.560830578536
 21
3304.239139430838
 31
0.0
  0
LINE
  5
1AA3
330
1F
100
AcDbEntity
  8
柱
100
AcDbLine
 10
1373.205529626413
 20
3806.739139430841
 30
0.0
 11
1286.716522887531
 21
3806.73913943084
 31
0.0
  0
LINE
  5
1AA4
330
1F
100
AcDbEntity
  8
柱
100
AcDbLine
 10
1306.716522887532
 20
3817.73913943084
 30
0.0
 11
1246.716522887531
 21
3817.73913943084
 31
0.0
  0
LINE
  5
1AA5
330
1F
100
AcDbEntity
  8
柱
100
AcDbLine
 10
1306.716522887532
 20
3795.739139430839
 30
0.0
 11
1246.716522887531
 21
3795.739139430839
 31
0.0
  0
ARC
  5
1AA6
330
1F
100
AcDbEntity
  8
柱
100
AcDbCircle
 10
1291.716522887545
 20
3806.739139430841
 30
0.0
 40
5.0
100
AcDbArc
 50
269.9999999999948
 51
90.00000000000261
  0
LINE
  5
1AA7
330
1F
100
AcDbEntity
  8
柱
100
AcDbLine
 10
1414.216522887531
 20
3788.339139430841
 30
0.0
 11
1516.716522887532
 21
3788.339139430841
 31
0.0
  0
LINE
  5
1AA8
330
1F
100
AcDbEntity
  8
柱
100
AcDbLine
 10
1414.216522887531
 20
3773.33913943084
 30
0.0
 11
1516.716522887532
 21
3773.33913943084
 31
0.0
  0
LINE
  5
1AA9
330
1F
100
AcDbEntity
  8
柱
100
AcDbLine
 10
1491.716522887531
 20
3798.33913943084
 30
0.0
 11
1491.716522887531
 21
3763.33913943084
 31
0.0
  0
LINE
  5
1AAA
330
1F
100
AcDbEntity
  8
柱
100
AcDbLine
 10
1506.716522887531
 20
3798.33913943084
 30
0.0
 11
1506.716522887531
 21
3763.33913943084
 31
0.0
  0
LINE
  5
1AAB
330
1F
100
AcDbEntity
  8
柱
100
AcDbLine
 10
1495.716522887531
 20
3793.33913943084
 30
0.0
 11
1516.716522887532
 21
3793.33913943084
 31
0.0
  0
LINE
  5
1AAC
330
1F
100
AcDbEntity
  8
柱
100
AcDbLine
 10
1406.716522887531
 20
3871.73913943084
 30
0.0
 11
1381.716522887532
 21
3871.73913943084
 31
0.0
  0
LINE
  5
1AAD
330
1F
100
AcDbEntity
  8
柱
100
AcDbLine
 10
1406.716522887531
 20
3786.73913943084
 30
0.0
 11
1414.216522887531
 21
3786.73913943084
 31
0.0
  0
LINE
  5
1AAE
330
1F
100
AcDbEntity
  8
柱
100
AcDbLine
 10
1406.716522887531
 20
3776.73913943084
 30
0.0
 11
1414.216522887531
 21
3776.73913943084
 31
0.0
  0
LINE
  5
1AAF
330
1F
100
AcDbEntity
  8
柱
100
AcDbLine
 10
1431.716522887531
 20
3798.33913943084
 30
0.0
 11
1431.716522887531
 21
3763.33913943084
 31
0.0
  0
LINE
  5
1AB0
330
1F
100
AcDbEntity
  8
柱
100
AcDbLine
 10
1414.216522887531
 20
3788.339139430841
 30
0.0
 11
1414.216522887531
 21
3773.33913943084
 31
0.0
  0
LINE
  5
1AB1
330
1F
100
AcDbEntity
  8
柱
100
AcDbLine
 10
1366.716522887531
 20
3871.73913943084
 30
0.0
 11
1306.716522887532
 21
3871.73913943084
 31
0.0
  0
LINE
  5
1AB3
330
1F
100
AcDbEntity
  8
柱
100
AcDbLine
 10
1246.716522887531
 20
3817.739139430839
 30
0.0
 11
1246.716522887531
 21
3795.739139430839
 31
0.0
  0
ARC
  5
1AB4
330
1F
100
AcDbEntity
  8
柱
100
AcDbCircle
 10
1258.716522887545
 20
3806.739139430841
 30
0.0
 40
5.0
100
AcDbArc
 50
90.00000000000261
 51
269.9999999999948
  0
LINE
  5
1AB5
330
1F
100
AcDbEntity
  8
柱
100
AcDbLine
 10
1291.716522887545
 20
3811.739139430841
 30
0.0
 11
1258.716522887545
 21
3811.739139430841
 31
0.0
  0
LINE
  5
1AB6
330
1F
100
AcDbEntity
  8
柱
100
AcDbLine
 10
1291.716522887545
 20
3801.739139430841
 30
0.0
 11
1258.716522887545
 21
3801.739139430841
 31
0.0
  0
TEXT
  5
1C90
330
1F
100
AcDbEntity
  8
DIMS
100
AcDbText
 10
1035.193392102223
 20
3164.403646268767
 30
0.0
 40
50.0
  1
H
 50
90.0
  7
ｽﾀｲﾙ1
100
AcDbText
  0
TEXT
  5
1C91
330
1F
100
AcDbEntity
  8
DIMS
100
AcDbText
 10
876.0525663031094
 20
2985.004548321191
 30
0.0
 40
50.0
  1
L
 50
90.0
  7
ｽﾀｲﾙ1
100
AcDbText
  0
TEXT
  5
1C92
330
1F
100
AcDbEntity
  8
DIMS
100
AcDbText
 10
1031.941349642027
 20
2250.334248911166
 30
0.0
 40
50.0
  1
D
 50
90.0
  7
ｽﾀｲﾙ1
100
AcDbText
  0
TEXT
  5
1C93
330
1F
100
AcDbEntity
  8
DIMS
100
AcDbText
 10
1030.464093774539
 20
2391.290497518356
 30
0.0
 40
50.0
  1
40
 50
90.0
  7
ｽﾀｲﾙ1
100
AcDbText
  0
TEXT
  5
1CB1
330
1F
100
AcDbEntity
  8
DIMS
100
AcDbText
 10
1200.661083548894
 20
482.1806528065971
 30
0.0
 40
50.0
  1
□60x60x2.3
  7
ｽﾀｲﾙ1
100
AcDbText
  0
LINE
  5
1D51
330
1F
100
AcDbEntity
  8
柱
100
AcDbLine
 10
2576.716522887532
 20
4742.069155343019
 30
0.0
 11
2576.716522887532
 21
4442.069155343019
 31
0.0
  0
LINE
  5
1D52
330
1F
100
AcDbEntity
  8
柱
100
AcDbLine
 10
2276.716522887531
 20
4742.069155343019
 30
0.0
 11
2276.716522887531
 21
4612.069155343019
 31
0.0
  0
LINE
  5
1D53
330
1F
100
AcDbEntity
  8
柱
100
AcDbLine
 10
1486.716522887532
 20
4742.069155343019
 30
0.0
 11
1486.716522887532
 21
4612.069155343019
 31
0.0
  0
LINE
  5
1D54
330
1F
100
AcDbEntity
  8
柱
100
AcDbLine
 10
1186.716522887532
 20
4742.069155343019
 30
0.0
 11
1186.716522887532
 21
4454.406322962118
 31
0.0
  0
LINE
  5
1D55
330
1F
100
AcDbEntity
  8
柱
100
AcDbLine
 10
1186.716522887532
 20
4442.069155343019
 30
0.0
 11
1186.716522887532
 21
4742.069155343019
 31
0.0
  0
LINE
  5
1D56
330
1F
100
AcDbEntity
  8
柱
100
AcDbLine
 10
1186.716522887532
 20
4742.069155343019
 30
0.0
 11
1486.716522887532
 21
4742.069155343019
 31
0.0
  0
LINE
  5
1D57
330
1F
100
AcDbEntity
  8
柱
100
AcDbLine
 10
1186.716522887532
 20
4442.069155343019
 30
0.0
 11
1486.716522887532
 21
4442.069155343019
 31
0.0
  0
LINE
  5
1D58
330
1F
100
AcDbEntity
  8
柱
100
AcDbLine
 10
2276.716522887531
 20
4742.069155343019
 30
0.0
 11
2576.716522887532
 21
4742.069155343019
 31
0.0
  0
LINE
  5
1D59
330
1F
100
AcDbEntity
  8
柱
100
AcDbLine
 10
2276.716522887531
 20
4442.069155343019
 30
0.0
 11
2576.716522887532
 21
4442.069155343019
 31
0.0
  0
LINE
  5
1D5C
330
1F
100
AcDbEntity
  8
柱
100
AcDbLine
 10
2456.716522887532
 20
4622.069155343019
 30
0.0
 11
2456.716522887532
 21
4562.069155343019
 31
0.0
  0
LINE
  5
1D5D
330
1F
100
AcDbEntity
  8
柱
100
AcDbLine
 10
2396.716522887532
 20
4622.069155343019
 30
0.0
 11
2396.716522887532
 21
4562.069155343019
 31
0.0
  0
LINE
  5
1D5E
330
1F
100
AcDbEntity
  8
柱
100
AcDbLine
 10
1306.716522887532
 20
4622.069155343019
 30
0.0
 11
1306.716522887532
 21
4562.069155343019
 31
0.0
  0
LINE
  5
1D62
330
1F
100
AcDbEntity
  8
柱
100
AcDbLine
 10
1366.716522887531
 20
4622.069155343019
 30
0.0
 11
1306.716522887532
 21
4622.069155343019
 31
0.0
  0
LINE
  5
1D63
330
1F
100
AcDbEntity
  8
柱
100
AcDbLine
 10
1366.716522887531
 20
4562.06915534302
 30
0.0
 11
1306.716522887532
 21
4562.069155343019
 31
0.0
  0
LINE
  5
1D64
330
1F
100
AcDbEntity
  8
柱
100
AcDbLine
 10
2396.716522887532
 20
4622.069155343019
 30
0.0
 11
2456.716522887532
 21
4622.069155343019
 31
0.0
  0
LINE
  5
1D65
330
1F
100
AcDbEntity
  8
柱
100
AcDbLine
 10
2396.716522887532
 20
4562.069155343019
 30
0.0
 11
2456.716522887532
 21
4562.069155343019
 31
0.0
  0
LINE
  5
1D66
330
1F
100
AcDbEntity
  8
柱
100
AcDbLine
 10
1381.716522887531
 20
4612.069155343019
 30
0.0
 11
1381.716522887531
 21
4572.069155343018
 31
0.0
  0
LINE
  5
1D67
330
1F
100
AcDbEntity
  8
柱
100
AcDbLine
 10
2376.716522887532
 20
4622.069155343019
 30
0.0
 11
2376.716522887532
 21
4572.069155343018
 31
0.0
  0
LINE
  5
1D69
330
1F
100
AcDbEntity
  8
柱
100
AcDbLine
 10
1381.716522887532
 20
4612.069155343019
 30
0.0
 11
2376.716522887532
 21
4612.069155343019
 31
0.0
  0
LINE
  5
1D6A
330
1F
100
AcDbEntity
  8
柱
100
AcDbLine
 10
1381.716522887532
 20
4572.069155343018
 30
0.0
 11
2376.716522887532
 21
4572.069155343018
 31
0.0
  0
LINE
  5
1D6B
330
1F
100
AcDbEntity
  8
メッシュ
100
AcDbLine
 10
2009.716522887531
 20
4602.069155343019
 30
0.0
 11
2009.716522887532
 21
4542.069155343019
 31
0.0
  0
LINE
  5
1D6C
330
1F
100
AcDbEntity
  8
メッシュ
100
AcDbLine
 10
2061.916522887532
 20
4602.069155343019
 30
0.0
 11
2061.916522887532
 21
4542.069155343019
 31
0.0
  0
LINE
  5
1D6D
330
1F
100
AcDbEntity
  8
メッシュ
100
AcDbLine
 10
2114.116522887532
 20
4602.069155343019
 30
0.0
 11
2114.116522887532
 21
4542.069155343019
 31
0.0
  0
LINE
  5
1D6E
330
1F
100
AcDbEntity
  8
メッシュ
100
AcDbLine
 10
2166.316522887532
 20
4602.069155343019
 30
0.0
 11
2166.316522887532
 21
4542.069155343019
 31
0.0
  0
LINE
  5
1D6F
330
1F
100
AcDbEntity
  8
メッシュ
100
AcDbLine
 10
2218.516522887531
 20
4602.069155343019
 30
0.0
 11
2218.516522887531
 21
4542.069155343019
 31
0.0
  0
LINE
  5
1D70
330
1F
100
AcDbEntity
  8
メッシュ
100
AcDbLine
 10
2270.716522887531
 20
4602.069155343019
 30
0.0
 11
2270.716522887531
 21
4542.069155343019
 31
0.0
  0
LINE
  5
1D71
330
1F
100
AcDbEntity
  8
メッシュ
100
AcDbLine
 10
2322.916522887531
 20
4602.069155343019
 30
0.0
 11
2322.916522887531
 21
4542.069155343019
 31
0.0
  0
LINE
  5
1D73
330
1F
100
AcDbEntity
  8
メッシュ
100
AcDbLine
 10
1957.516522887532
 20
4602.069155343019
 30
0.0
 11
1957.516522887532
 21
4542.069155343019
 31
0.0
  0
LINE
  5
1D74
330
1F
100
AcDbEntity
  8
メッシュ
100
AcDbLine
 10
1905.316522887532
 20
4602.069155343019
 30
0.0
 11
1905.316522887532
 21
4542.069155343019
 31
0.0
  0
LINE
  5
1D75
330
1F
100
AcDbEntity
  8
メッシュ
100
AcDbLine
 10
1853.116522887532
 20
4602.069155343019
 30
0.0
 11
1853.116522887532
 21
4542.069155343019
 31
0.0
  0
LINE
  5
1D76
330
1F
100
AcDbEntity
  8
メッシュ
100
AcDbLine
 10
1800.916522887531
 20
4602.069155343019
 30
0.0
 11
1800.916522887531
 21
4542.069155343019
 31
0.0
  0
LINE
  5
1D77
330
1F
100
AcDbEntity
  8
メッシュ
100
AcDbLine
 10
1748.716522887532
 20
4602.069155343019
 30
0.0
 11
1748.716522887531
 21
4542.069155343019
 31
0.0
  0
LINE
  5
1D78
330
1F
100
AcDbEntity
  8
メッシュ
100
AcDbLine
 10
1800.916522887531
 20
4602.069155343019
 30
0.0
 11
1800.916522887531
 21
4542.069155343019
 31
0.0
  0
LINE
  5
1D79
330
1F
100
AcDbEntity
  8
メッシュ
100
AcDbLine
 10
1696.516522887531
 20
4602.069155343019
 30
0.0
 11
1696.516522887531
 21
4542.069155343019
 31
0.0
  0
LINE
  5
1D7A
330
1F
100
AcDbEntity
  8
メッシュ
100
AcDbLine
 10
1644.316522887531
 20
4602.069155343019
 30
0.0
 11
1644.316522887531
 21
4542.069155343019
 31
0.0
  0
LINE
  5
1D7B
330
1F
100
AcDbEntity
  8
メッシュ
100
AcDbLine
 10
1592.116522887532
 20
4602.069155343019
 30
0.0
 11
1592.116522887531
 21
4542.069155343019
 31
0.0
  0
LINE
  5
1D7C
330
1F
100
AcDbEntity
  8
メッシュ
100
AcDbLine
 10
1539.916522887531
 20
4602.069155343019
 30
0.0
 11
1539.916522887531
 21
4542.069155343019
 31
0.0
  0
LINE
  5
1D7D
330
1F
100
AcDbEntity
  8
メッシュ
100
AcDbLine
 10
1487.716522887531
 20
4602.069155343019
 30
0.0
 11
1487.716522887531
 21
4542.069155343019
 31
0.0
  0
LINE
  5
1D7E
330
1F
100
AcDbEntity
  8
メッシュ
100
AcDbLine
 10
1435.516522887531
 20
4602.069155343019
 30
0.0
 11
1435.516522887531
 21
4542.069155343019
 31
0.0
  0
LINE
  5
1D81
330
1F
100
AcDbEntity
  8
メッシュ
100
AcDbLine
 10
1411.716522887531
 20
4557.069155343018
 30
0.0
 11
2346.716522887532
 21
4557.069155343018
 31
0.0
  0
LINE
  5
1D82
330
1F
100
AcDbEntity
  8
メッシュ
100
AcDbLine
 10
1411.716522887531
 20
4587.069155343018
 30
0.0
 11
2346.716522887532
 21
4587.069155343018
 31
0.0
  0
LINE
  5
1D83
330
1F
100
AcDbEntity
  8
メッシュ
100
AcDbLine
 10
1411.716522887531
 20
4602.069155343019
 30
0.0
 11
2346.716522887532
 21
4602.069155343019
 31
0.0
  0
LINE
  5
1D85
330
1F
100
AcDbEntity
  8
メッシュ
100
AcDbLine
 10
1411.716522887531
 20
4542.069155343019
 30
0.0
 11
2346.716522887532
 21
4542.069155343019
 31
0.0
  0
LINE
  5
1D86
330
1F
100
AcDbEntity
  8
柱
100
AcDbLine
 10
1406.716522887531
 20
4612.069155343019
 30
0.0
 11
1406.716522887531
 21
4572.069155343018
 31
0.0
  0
LINE
  5
1D87
330
1F
100
AcDbEntity
  8
柱
100
AcDbLine
 10
2351.716522887532
 20
4612.069155343019
 30
0.0
 11
2351.716522887532
 21
4572.069155343018
 31
0.0
  0
LINE
  5
1D94
330
1F
100
AcDbEntity
  8
柱
100
AcDbLine
 10
2276.716522887531
 20
4572.069155343018
 30
0.0
 11
2276.716522887531
 21
4442.069155343019
 31
0.0
  0
LINE
  5
1D95
330
1F
100
AcDbEntity
  8
柱
100
AcDbLine
 10
1486.716522887532
 20
4572.069155343018
 30
0.0
 11
1486.716522887532
 21
4442.069155343019
 31
0.0
  0
LINE
  5
1DA2
330
1F
100
AcDbEntity
  8
柱
100
AcDbLine
 10
1589.716522887532
 20
4645.069155343018
 30
0.0
 11
1591.716522887532
 21
4645.069155343018
 31
0.0
  0
TEXT
  5
1DEA
330
1F
100
AcDbEntity
  8
DIMS
100
AcDbText
 10
6986.233843833438
 20
5414.915051727621
 30
0.0
 40
50.0
  1
図
  7
ｽﾀｲﾙ1
100
AcDbText
  0
TEXT
  5
1DEB
330
1F
100
AcDbEntity
  8
DIMS
100
AcDbText
 10
6986.233843833438
 20
5349.940432438281
 30
0.0
 40
50.0
  1
番
  7
ｽﾀｲﾙ1
100
AcDbText
  0
TEXT
  5
1DF3
330
1F
100
AcDbEntity
  8
DIMS
100
AcDbText
 10
2659.914941155145
 20
73.04162362703937
 30
0.0
 40
50.0
  1
*　製品改良の為仕様変更をすることがありますので御了承下さい。
  7
ｽﾀｲﾙ1
100
AcDbText
  0
TEXT
  5
1DF4
330
1F
100
AcDbEntity
  8
DIMS
100
AcDbText
 10
1262.693173869709
 20
1084.196267179708
 30
0.0
 40
50.0
  1
扉柱寸法
  7
ｽﾀｲﾙ1
100
AcDbText
  0
LINE
  5
1DF5
330
1F
100
AcDbEntity
  8
DIMS
100
AcDbLine
 10
803.4682394960109
 20
1159.731826641227
 30
0.0
 11
803.4682394960109
 21
259.7318266412276
 31
0.0
  0
LINE
  5
1DFE
330
1F
100
AcDbEntity
  8
DIMS
100
AcDbLine
 10
1046.60081533557
 20
3903.33913943084
 30
0.0
 11
1046.60081533557
 21
2091.73913943084
 31
0.0
  0
LINE
  5
1DFF
330
1F
100
AcDbEntity
  8
DIMS
100
AcDbLine
 10
895.6834203394846
 20
3871.739139430839
 30
0.0
 11
895.6834203394846
 21
2091.739139430841
 31
0.0
  0
LINE
  5
1E01
330
1F
100
AcDbEntity
  8
DIMS
100
AcDbLine
 10
1394.216522887532
 20
3903.33913943084
 30
0.0
 11
1015.013460572134
 21
3903.33913943084
 31
0.0
  0
LINE
  5
1E02
330
1F
100
AcDbEntity
  8
DIMS
100
AcDbLine
 10
1296.716522887532
 20
3871.73913943084
 30
0.0
 11
860.5863574069353
 21
3871.73913943084
 31
0.0
  0
LINE
  5
1E04
330
1F
100
AcDbEntity
  8
DIMS
100
AcDbLine
 10
1371.716522887532
 20
2441.73913943084
 30
0.0
 11
1007.994044233912
 21
2441.73913943084
 31
0.0
  0
LINE
  5
1E05
330
1F
100
AcDbEntity
  8
DIMS
100
AcDbLine
 10
1171.716522887531
 20
2406.739139430841
 30
0.0
 11
1011.503752403021
 21
2406.73913943084
 31
0.0
  0
LINE
  5
1E06
330
1F
100
AcDbEntity
  8
DIMS
100
AcDbLine
 10
1296.716522887531
 20
2091.739139430841
 30
0.0
 11
871.1154819142702
 21
2091.73913943084
 31
0.0
  0
LINE
  5
1E0B
330
1F
100
AcDbEntity
  8
柱
100
AcDbLine
 10
1366.716522887531
 20
3871.73913943084
 30
0.0
 11
1366.716522887531
 21
3258.307044732
 31
0.0
  0
TEXT
  5
1E1D
330
1F
100
AcDbEntity
  8
DIMS
100
AcDbText
 10
2638.14033081248
 20
4139.184889811729
 30
0.0
 40
50.0
  1
メッシュ端止金具
  7
ｽﾀｲﾙ1
100
AcDbText
  0
TEXT
  5
1E1E
330
1F
100
AcDbEntity
  8
DIMS
100
AcDbText
 10
2668.321982718328
 20
3536.250212419817
 30
0.0
 40
50.0
  1
ＳＵＳ蝶番
  7
ｽﾀｲﾙ1
100
AcDbText
  0
TEXT
  5
1E1F
330
1F
100
AcDbEntity
  8
DIMS
100
AcDbText
 10
1546.722606813142
 20
4136.830401821184
 30
0.0
 40
50.0
  1
扉タテ枠□40x25x1.6t
  7
ｽﾀｲﾙ1
100
AcDbText
  0
LEADER
  5
1E23
330
1F
100
AcDbEntity
  8
DIMS
100
AcDbLeader
  3
ISO-25
 76
     3
 10
2383.082237072375
 20
3746.73913943084
 30
0.0
 10
2647.921964486519
 20
3519.928569795359
 30
0.0
 10
2997.202104231634
 20
3519.928569795359
 30
0.0
1001
ACAD
1000
DSTYLE
1002
{
1070
   147
1040
0.625
1070
    77
1070
     0
1002
}
  0
LEADER
  5
1E24
330
1F
100
AcDbEntity
  8
DIMS
100
AcDbLeader
  3
ISO-25
 76
     3
 10
2516.716522887532
 20
3817.739139430841
 30
0.0
 10
2653.379461070668
 20
4120.05275649193
 30
0.0
 10
3144.554644030868
 20
4120.05275649193
 30
0.0
1001
ACAD
1000
DSTYLE
1002
{
1070
   147
1040
0.625
1070
    77
1070
     0
1002
}
  0
LEADER
  5
1E26
330
1F
100
AcDbEntity
  8
DIMS
100
AcDbLeader
  3
ISO-25
 76
     3
 10
1394.216522887532
 20
3871.73913943084
 30
0.0
 10
1540.049045103482
 20
4120.05275649193
 30
0.0
 10
2194.949295337424
 20
4120.05275649193
 30
0.0
1001
ACAD
1000
DSTYLE
1002
{
1070
   147
1040
0.625
1070
    77
1070
     0
1002
}
  0
TEXT
  5
1E31
330
1F
100
AcDbEntity
  8
DIMS
100
AcDbText
 10
4489.378184643032
 20
5350.33127971357
 30
0.0
 40
100.0
  1
パーフェクトフェンスＫ3型　片開門扉
  7
ｽﾀｲﾙ1
100
AcDbText
  0
TEXT
  5
1E4F
330
1F
100
AcDbEntity
  8
DIMS
100
AcDbText
 10
6387.235106330052
 20
139.3711986650669
 30
0.0
 40
100.0
  1
東進建機株式会社
  7
ｽﾀｲﾙ1
100
AcDbText
  0
LWPOLYLINE
  5
1EA2
330
1F
100
AcDbEntity
  8
図枠
100
AcDbPolyline
 90
        4
 70
     1
 43
0.0
 10
10.0
 20
10.0
 10
7900.0
 20
10.0
 10
7900.0
 20
5500.0
 10
10.0
 20
5500.0
  0
LINE
  5
1EA6
330
1F
100
AcDbEntity
  8
図枠
100
AcDbLine
 10
4400.0
 20
5300.0
 30
0.0
 11
4400.0
 21
5500.0
 31
0.0
  0
LINE
  5
1EA8
330
1F
100
AcDbEntity
  8
図枠
100
AcDbLine
 10
4400.0
 20
5300.0
 30
0.0
 11
7900.0
 21
5300.0
 31
0.0
  0
LINE
  5
1EA9
330
1F
100
AcDbEntity
  8
図枠
100
AcDbLine
 10
6900.0
 20
5300.0
 30
0.0
 11
6900.0
 21
5500.0
 31
0.0
  0
LINE
  5
1EAA
330
1F
100
AcDbEntity
  8
図枠
100
AcDbLine
 10
7150.0
 20
5300.0
 30
0.0
 11
7150.0
 21
5500.0
 31
0.0
  0
CIRCLE
  5
1EC8
330
1F
100
AcDbEntity
  8
DIMS
100
AcDbCircle
 10
1046.60081533557
 20
3903.33913943084
 30
0.0
 40
5.0
  0
CIRCLE
  5
1EC9
330
1F
100
AcDbEntity
  8
DIMS
100
AcDbCircle
 10
895.6834203394846
 20
3871.73913943084
 30
0.0
 40
5.0
  0
CIRCLE
  5
1ECA
330
1F
100
AcDbEntity
  8
DIMS
100
AcDbCircle
 10
1046.60081533557
 20
2441.73913943084
 30
0.0
 40
5.0
  0
CIRCLE
  5
1ECB
330
1F
100
AcDbEntity
  8
DIMS
100
AcDbCircle
 10
1046.600815335571
 20
2406.73913943084
 30
0.0
 40
5.0
  0
CIRCLE
  5
1ECC
330
1F
100
AcDbEntity
  8
DIMS
100
AcDbCircle
 10
1046.60081533557
 20
2091.739139430841
 30
0.0
 40
5.0
  0
CIRCLE
  5
1ECD
330
1F
100
AcDbEntity
  8
DIMS
100
AcDbCircle
 10
895.6834203394846
 20
2091.739139430841
 30
0.0
 40
5.0
  0
LINE
  5
214E
330
1F
100
AcDbEntity
  8
柱
100
AcDbLine
 10
2396.716522887532
 20
3821.73913943084
 30
0.0
 11
2376.716522887532
 21
3821.73913943084
 31
0.0
  0
LINE
  5
214F
330
1F
100
AcDbEntity
  8
柱
100
AcDbLine
 10
2396.716522887546
 20
3731.739139430839
 30
0.0
 11
2376.716522887532
 21
3731.739139430839
 31
0.0
  0
LINE
  5
2150
330
1F
100
AcDbEntity
  8
柱
100
AcDbLine
 10
2393.716522887532
 20
3821.73913943084
 30
0.0
 11
2393.716522887532
 21
3731.739139430839
 31
0.0
  0
LINE
  5
2151
330
1F
100
AcDbEntity
  8
柱
100
AcDbLine
 10
2379.716522887532
 20
3821.73913943084
 30
0.0
 11
2379.716522887532
 21
3731.739139430839
 31
0.0
  0
LINE
  5
2152
330
1F
100
AcDbEntity
  8
柱
100
AcDbLine
 10
2396.716522887546
 20
2621.73913943084
 30
0.0
 11
2376.716522887532
 21
2621.73913943084
 31
0.0
  0
LINE
  5
2153
330
1F
100
AcDbEntity
  8
柱
100
AcDbLine
 10
2396.716522887546
 20
2531.73913943084
 30
0.0
 11
2376.716522887532
 21
2531.73913943084
 31
0.0
  0
LINE
  5
2154
330
1F
100
AcDbEntity
  8
柱
100
AcDbLine
 10
2399.716522887532
 20
3871.73913943084
 30
0.0
 11
2399.716522887532
 21
2091.739139430841
 31
0.0
  0
LINE
  5
2155
330
1F
100
AcDbEntity
  8
柱
100
AcDbLine
 10
2379.716522887532
 20
2621.739139430841
 30
0.0
 11
2379.716522887532
 21
2531.73913943084
 31
0.0
  0
LINE
  5
2157
330
1F
100
AcDbEntity
  8
部品
100
AcDbLine
 10
2396.716522887532
 20
4577.069155343019
 30
0.0
 11
2393.716522887532
 21
4577.069155343019
 31
0.0
  0
CIRCLE
  5
215A
330
1F
100
AcDbEntity
  8
部品
100
AcDbCircle
 10
2386.716522887532
 20
4622.069155343019
 30
0.0
 40
10.0
  0
LINE
  5
215B
330
1F
100
AcDbEntity
  8
柱
100
AcDbLine
 10
2379.716522887532
 20
4614.927726914475
 30
0.0
 11
2379.716522887532
 21
4577.069155343019
 31
0.0
  0
LINE
  5
215C
330
1F
100
AcDbEntity
  8
柱
100
AcDbLine
 10
2393.716522887532
 20
4614.927726914475
 30
0.0
 11
2393.716522887532
 21
4577.069155343019
 31
0.0
  0
LINE
  5
215D
330
1F
100
AcDbEntity
  8
部品
100
AcDbLine
 10
2379.716522887532
 20
4577.069155343019
 30
0.0
 11
2376.716522887532
 21
4577.069155343019
 31
0.0
  0
LINE
  5
218D
330
1F
100
AcDbEntity
  8
柱
100
AcDbLine
 10
2399.716522887532
 20
2126.89642695622
 30
0.0
 11
2279.716522887533
 21
2006.896426956221
 31
0.0
  0
LINE
  5
218E
330
1F
100
AcDbEntity
  8
柱
100
AcDbLine
 10
2576.716522887532
 20
2303.896426956221
 30
0.0
 11
2456.716522887532
 21
2183.896426956219
 31
0.0
  0
LINE
  5
218F
330
1F
100
AcDbEntity
  8
柱
100
AcDbLine
 10
2576.493218184169
 20
2020.830409778237
 30
0.0
 11
2362.401947836771
 21
1806.73913943084
 31
0.0
  0
LINE
  5
2192
330
1F
100
AcDbEntity
  8
柱
100
AcDbLine
 10
2576.716522887532
 20
2289.75429133249
 30
0.0
 11
2456.716522887532
 21
2169.754291332489
 31
0.0
  0
LINE
  5
2193
330
1F
100
AcDbEntity
  8
柱
100
AcDbLine
 10
2576.716522887532
 20
2275.61215570876
 30
0.0
 11
2456.716522887532
 21
2155.612155708759
 31
0.0
  0
LINE
  5
2194
330
1F
100
AcDbEntity
  8
柱
100
AcDbLine
 10
2399.716522887532
 20
2112.754291332489
 30
0.0
 11
2279.716522887534
 21
1992.75429133249
 31
0.0
  0
LINE
  5
2195
330
1F
100
AcDbEntity
  8
柱
100
AcDbLine
 10
2399.716522887532
 20
2098.612155708758
 30
0.0
 11
2279.716522887534
 21
1978.61215570876
 31
0.0
  0
LINE
  5
2196
330
1F
100
AcDbEntity
  8
柱
100
AcDbLine
 10
2576.716522887532
 20
2006.911578857869
 30
0.0
 11
2376.544083460501
 21
1806.739139430839
 31
0.0
  0
LINE
  5
2197
330
1F
100
AcDbEntity
  8
柱
100
AcDbLine
 10
2576.716522887532
 20
1992.769443234139
 30
0.0
 11
2390.686219084232
 21
1806.739139430839
 31
0.0
  0
LINE
  5
2198
330
1F
100
AcDbEntity
  8
柱
100
AcDbLine
 10
1486.939827590895
 20
2006.911578857868
 30
0.0
 11
1286.767388163865
 21
1806.739139430838
 31
0.0
  0
LINE
  5
2199
330
1F
100
AcDbEntity
  8
柱
100
AcDbLine
 10
1486.939827590895
 20
1992.769443234138
 30
0.0
 11
1300.909523787595
 21
1806.739139430838
 31
0.0
  0
LINE
  5
219A
330
1F
100
AcDbEntity
  8
柱
100
AcDbLine
 10
1486.716522887532
 20
2020.830409778236
 30
0.0
 11
1272.625252540134
 21
1806.739139430838
 31
0.0
  0
LINE
  5
219B
330
1F
100
AcDbEntity
  8
柱
100
AcDbLine
 10
1306.716522887532
 20
2098.612155708758
 30
0.0
 11
1186.716522887532
 21
1978.612155708758
 31
0.0
  0
LINE
  5
219C
330
1F
100
AcDbEntity
  8
柱
100
AcDbLine
 10
1306.716522887532
 20
2112.754291332489
 30
0.0
 11
1186.716522887532
 21
1992.754291332489
 31
0.0
  0
LINE
  5
219D
330
1F
100
AcDbEntity
  8
柱
100
AcDbLine
 10
1306.716522887532
 20
2126.89642695622
 30
0.0
 11
1186.716522887532
 21
2006.89642695622
 31
0.0
  0
LINE
  5
219E
330
1F
100
AcDbEntity
  8
柱
100
AcDbLine
 10
1486.716522887531
 20
2275.612155708758
 30
0.0
 11
1366.716522887531
 21
2155.612155708757
 31
0.0
  0
LINE
  5
219F
330
1F
100
AcDbEntity
  8
柱
100
AcDbLine
 10
1486.716522887531
 20
2289.75429133249
 30
0.0
 11
1366.716522887531
 21
2169.754291332488
 31
0.0
  0
LINE
  5
21A0
330
1F
100
AcDbEntity
  8
柱
100
AcDbLine
 10
1486.716522887532
 20
2303.89642695622
 30
0.0
 11
1366.716522887531
 21
2183.896426956218
 31
0.0
  0
LINE
  5
21A1
330
1F
100
AcDbEntity
  8
柱
100
AcDbLine
 10
1306.716522887532
 20
2378.45486818338
 30
0.0
 11
1186.716522887532
 21
2258.454868183379
 31
0.0
  0
LINE
  5
21A2
330
1F
100
AcDbEntity
  8
柱
100
AcDbLine
 10
1306.716522887532
 20
2392.59700380711
 30
0.0
 11
1186.716522887532
 21
2272.59700380711
 31
0.0
  0
LINE
  5
21A3
330
1F
100
AcDbEntity
  8
柱
100
AcDbLine
 10
1306.716522887532
 20
2406.73913943084
 30
0.0
 11
1186.716522887532
 21
2286.73913943084
 31
0.0
  0
LINE
  5
21A4
330
1F
100
AcDbEntity
  8
柱
100
AcDbLine
 10
2279.716522887532
 20
2406.73913943084
 30
0.0
 11
2279.716522887535
 21
1806.739139430838
 31
0.0
  0
LINE
  5
21A6
330
1F
100
AcDbEntity
  8
柱
100
AcDbLine
 10
2399.716522887532
 20
2378.45486818338
 30
0.0
 11
2279.716522887533
 21
2258.454868183379
 31
0.0
  0
LINE
  5
21A7
330
1F
100
AcDbEntity
  8
柱
100
AcDbLine
 10
2399.716522887532
 20
2392.59700380711
 30
0.0
 11
2279.716522887532
 21
2272.59700380711
 31
0.0
  0
LINE
  5
21A8
330
1F
100
AcDbEntity
  8
柱
100
AcDbLine
 10
2399.716522887532
 20
2406.73913943084
 30
0.0
 11
2279.716522887532
 21
2286.73913943084
 31
0.0
  0
LINE
  5
6CC1
330
1F
100
AcDbEntity
  8
柱
100
AcDbLine
 10
1848.909394273268
 20
2396.73913943084
 30
0.0
 11
1833.135891581372
 21
2369.418631355151
 31
0.0
  0
LINE
  5
6CC2
330
1F
100
AcDbEntity
  8
柱
100
AcDbLine
 10
1854.682896965164
 20
2386.739139430844
 30
0.0
 11
1844.682896965165
 21
2369.418631355151
 31
0.0
  0
LINE
  5
6CC3
330
1F
100
AcDbEntity
  8
柱
100
AcDbLine
 10
1814.268378121894
 20
2396.73913943084
 30
0.0
 11
1830.041880813793
 21
2369.418631355151
 31
0.0
  0
LINE
  5
6CC4
330
1F
100
AcDbEntity
  8
柱
100
AcDbLine
 10
1825.815383505688
 20
2376.73913943084
 30
0.0
 11
1821.588886197584
 21
2369.418631355151
 31
0.0
  0
LINE
  5
6CC5
330
1F
100
AcDbEntity
  8
柱
100
AcDbLine
 10
1779.627361970514
 20
2396.73913943084
 30
0.0
 11
1795.400864662415
 21
2369.418631355151
 31
0.0
  0
LINE
  5
6CC6
330
1F
100
AcDbEntity
  8
柱
100
AcDbLine
 10
1814.268378121895
 20
2396.73913943084
 30
0.0
 11
1798.49487543
 21
2369.418631355151
 31
0.0
  0
LINE
  5
6CC7
330
1F
100
AcDbEntity
  8
柱
100
AcDbLine
 10
1820.041880813791
 20
2386.73913943084
 30
0.0
 11
1810.041880813791
 21
2369.418631355151
 31
0.0
  0
LINE
  5
6CC8
330
1F
100
AcDbEntity
  8
柱
100
AcDbLine
 10
1825.815383505687
 20
2396.73913943084
 30
0.0
 11
1837.362388889479
 21
2376.739139430843
 31
0.0
  0
LINE
  5
6CC9
330
1F
100
AcDbEntity
  8
柱
100
AcDbLine
 10
1791.174367354308
 20
2396.73913943084
 30
0.0
 11
1802.721372738103
 21
2376.73913943084
 31
0.0
  0
LINE
  5
6CCA
330
1F
100
AcDbEntity
  8
柱
100
AcDbLine
 10
1802.721372738101
 20
2396.73913943084
 30
0.0
 11
1808.494875429999
 21
2386.73913943084
 31
0.0
  0
LINE
  5
6CCB
330
1F
100
AcDbEntity
  8
柱
100
AcDbLine
 10
1837.362388889479
 20
2396.739139430842
 30
0.0
 11
1843.135891581374
 21
2386.739139430844
 31
0.0
  0
LINE
  5
6CCC
330
1F
100
AcDbEntity
  8
柱
100
AcDbLine
 10
1918.191426576024
 20
2396.73913943084
 30
0.0
 11
1902.417923884129
 21
2369.418631355151
 31
0.0
  0
LINE
  5
6CCD
330
1F
100
AcDbEntity
  8
柱
100
AcDbLine
 10
1883.550410424649
 20
2396.73913943084
 30
0.0
 11
1899.323913116543
 21
2369.418631355151
 31
0.0
  0
LINE
  5
6CCE
330
1F
100
AcDbEntity
  8
柱
100
AcDbLine
 10
1889.323913116544
 20
2386.73913943084
 30
0.0
 11
1879.323913116542
 21
2369.418631355151
 31
0.0
  0
LINE
  5
6CCF
330
1F
100
AcDbEntity
  8
柱
100
AcDbLine
 10
1883.550410424646
 20
2396.73913943084
 30
0.0
 11
1867.77690773275
 21
2369.418631355151
 31
0.0
  0
LINE
  5
6CD0
330
1F
100
AcDbEntity
  8
柱
100
AcDbLine
 10
1895.097415808439
 20
2376.73913943084
 30
0.0
 11
1890.870918500335
 21
2369.418631355151
 31
0.0
  0
LINE
  5
6CD1
330
1F
100
AcDbEntity
  8
柱
100
AcDbLine
 10
1918.191426576024
 20
2396.73913943084
 30
0.0
 11
1933.964929267917
 21
2369.418631355151
 31
0.0
  0
LINE
  5
6CD2
330
1F
100
AcDbEntity
  8
柱
100
AcDbLine
 10
1923.964929267919
 20
2386.73913943084
 30
0.0
 11
1913.964929267922
 21
2369.418631355151
 31
0.0
  0
LINE
  5
6CD3
330
1F
100
AcDbEntity
  8
柱
100
AcDbLine
 10
1929.738431959815
 20
2376.739139430836
 30
0.0
 11
1925.511934651714
 21
2369.418631355151
 31
0.0
  0
LINE
  5
6CD4
330
1F
100
AcDbEntity
  8
柱
100
AcDbLine
 10
1848.909394273269
 20
2396.73913943084
 30
0.0
 11
1864.682896965166
 21
2369.418631355151
 31
0.0
  0
LINE
  5
6CD5
330
1F
100
AcDbEntity
  8
柱
100
AcDbLine
 10
1860.456399657061
 20
2376.739139430842
 30
0.0
 11
1856.229902348957
 21
2369.418631355151
 31
0.0
  0
LINE
  5
6CD6
330
1F
100
AcDbEntity
  8
柱
100
AcDbLine
 10
1929.738431959817
 20
2396.73913943084
 30
0.0
 11
1939.068558978737
 21
2380.578885392994
 31
0.0
  0
LINE
  5
6CD7
330
1F
100
AcDbEntity
  8
柱
100
AcDbLine
 10
1906.644421192232
 20
2396.73913943084
 30
0.0
 11
1912.417923884128
 21
2386.73913943084
 31
0.0
  0
LINE
  5
6CD8
330
1F
100
AcDbEntity
  8
柱
100
AcDbLine
 10
1860.456399657062
 20
2396.73913943084
 30
0.0
 11
1872.003405040854
 21
2376.73913943084
 31
0.0
  0
LINE
  5
6CD9
330
1F
100
AcDbEntity
  8
柱
100
AcDbLine
 10
1872.003405040854
 20
2396.73913943084
 30
0.0
 11
1877.77690773275
 21
2386.73913943084
 31
0.0
  0
LINE
  5
6CDA
330
1F
100
AcDbEntity
  8
柱
100
AcDbLine
 10
1895.097415808438
 20
2396.73913943084
 30
0.0
 11
1906.644421192233
 21
2376.73913943084
 31
0.0
  0
LINE
  5
6CDB
330
1F
100
AcDbEntity
  8
柱
100
AcDbLine
 10
1941.285437343608
 20
2396.73913943084
 30
0.0
 11
1944.172188689557
 21
2391.739139430838
 31
0.0
  0
TEXT
  5
6CEF
330
1F
100
AcDbEntity
  8
DIMS
100
AcDbText
 10
1200.661083548894
 20
584.0173545629059
 30
0.0
 40
50.0
  1
□60x60x2.3
  7
ｽﾀｲﾙ1
100
AcDbText
  0
TEXT
  5
6CF0
330
1F
100
AcDbEntity
  8
DIMS
100
AcDbText
 10
1200.661083548894
 20
689.3656585410772
 30
0.0
 40
50.0
  1
□60x60x2.3
  7
ｽﾀｲﾙ1
100
AcDbText
  0
TEXT
  5
6CF1
330
1F
100
AcDbEntity
  8
DIMS
100
AcDbText
 10
1200.661083548894
 20
789.4465522063856
 30
0.0
 40
50.0
  1
□60x60x2.3
  7
ｽﾀｲﾙ1
100
AcDbText
  0
TEXT
  5
6CF2
330
1F
100
AcDbEntity
  8
DIMS
100
AcDbText
 10
1200.661083548894
 20
891.28324000256
 30
0.0
 40
50.0
  1
□60x60x2.3
  7
ｽﾀｲﾙ1
100
AcDbText
  0
TEXT
  5
6CF3
330
1F
100
AcDbEntity
  8
DIMS
100
AcDbText
 10
1200.661083548894
 20
987.8525314460075
 30
0.0
 40
50.0
  1
□60x60x2.3
  7
ｽﾀｲﾙ1
100
AcDbText
  0
TEXT
  5
6CF5
330
1F
100
AcDbEntity
  8
DIMS
100
AcDbText
 10
1200.661083548894
 20
382.099759141287
 30
0.0
 40
50.0
  1
□60x60x2.3
  7
ｽﾀｲﾙ1
100
AcDbText
  0
TEXT
  5
6CF7
330
1F
100
AcDbEntity
  8
DIMS
100
AcDbText
 10
1015.068082756341
 20
587.3039079329682
 30
0.0
 40
50.0
  1
1090
  7
ｽﾀｲﾙ1
100
AcDbText
  0
TEXT
  5
6CF8
330
1F
100
AcDbEntity
  8
DIMS
100
AcDbText
 10
1015.068082756341
 20
682.1173773252812
 30
0.0
 40
50.0
  1
1090
  7
ｽﾀｲﾙ1
100
AcDbText
  0
TEXT
  5
6CF9
330
1F
100
AcDbEntity
  8
DIMS
100
AcDbText
 10
1015.068082756341
 20
787.4656813034525
 30
0.0
 40
50.0
  1
1090
  7
ｽﾀｲﾙ1
100
AcDbText
  0
TEXT
  5
6CFA
330
1F
100
AcDbEntity
  8
DIMS
100
AcDbText
 10
1015.068082756341
 20
885.7907668777643
 30
0.0
 40
50.0
  1
1090
  7
ｽﾀｲﾙ1
100
AcDbText
  0
TEXT
  5
6CFB
330
1F
100
AcDbEntity
  8
DIMS
100
AcDbText
 10
1015.068082756341
 20
982.3600443610775
 30
0.0
 40
50.0
  1
1090
  7
ｽﾀｲﾙ1
100
AcDbText
  0
LINE
  5
7F57
330
1F
100
AcDbEntity
  8
柱
100
AcDbLine
 10
1334.136243147753
 20
3218.307044732001
 30
0.0
 11
1329.716522887532
 21
3218.307044732001
 31
0.0
  0
LINE
  5
7F58
330
1F
100
AcDbEntity
  8
柱
100
AcDbLine
 10
1383.636243147753
 20
3258.307044732
 30
0.0
 11
1308.636243147753
 21
3258.307044732
 31
0.0
  0
LINE
  5
7F59
330
1F
100
AcDbEntity
  8
CENTER
  6
CENTER
100
AcDbLine
 10
1379.526105114976
 20
3238.307044732002
 30
0.0
 11
1289.928932415649
 21
3238.307044732002
 31
0.0
  0
LINE
  5
7F60
330
1F
100
AcDbEntity
  8
柱
100
AcDbLine
 10
1311.636243147753
 20
3258.307044732
 30
0.0
 11
1311.636243147753
 21
3218.307044732001
 31
0.0
  0
LINE
  5
7F61
330
1F
100
AcDbEntity
  8
柱
100
AcDbLine
 10
1308.636243147753
 20
3258.307044732
 30
0.0
 11
1308.636243147753
 21
3218.307044732001
 31
0.0
  0
LINE
  5
7F6A
330
1F
100
AcDbEntity
  8
CENTER
  6
CENTER
100
AcDbLine
 10
1379.526105114976
 20
3238.307044732002
 30
0.0
 11
1408.365545635418
 21
3238.307044732001
 31
0.0
  0
LINE
  5
7F6B
330
1F
100
AcDbEntity
  8
柱
100
AcDbLine
 10
1329.716522887532
 20
3245.307044732002
 30
0.0
 11
1329.716522887532
 21
3208.307044732003
 31
0.0
  0
LINE
  5
7F6C
330
1F
100
AcDbEntity
  8
柱
100
AcDbLine
 10
1342.716522887531
 20
3218.307044732001
 30
0.0
 11
1342.716522887531
 21
3208.307044732003
 31
0.0
  0
LINE
  5
7F6E
330
1F
100
AcDbEntity
  8
柱
100
AcDbLine
 10
1326.716522887531
 20
3245.307044732002
 30
0.0
 11
1326.716522887531
 21
3208.307044732003
 31
0.0
  0
LINE
  5
7F6F
330
1F
100
AcDbEntity
  8
柱
100
AcDbLine
 10
1329.716522887532
 20
3268.307044732003
 30
0.0
 11
1329.716522887532
 21
3258.307044732002
 31
0.0
  0
LINE
  5
7F70
330
1F
100
AcDbEntity
  8
柱
100
AcDbLine
 10
1342.716522887531
 20
3268.307044732001
 30
0.0
 11
1342.716522887531
 21
3258.307044732001
 31
0.0
  0
LINE
  5
7F71
330
1F
100
AcDbEntity
  8
柱
100
AcDbLine
 10
1342.716522887531
 20
3268.307044732001
 30
0.0
 11
1329.716522887532
 21
3268.307044732002
 31
0.0
  0
LINE
  5
7F72
330
1F
100
AcDbEntity
  8
柱
100
AcDbLine
 10
1342.716522887531
 20
3208.307044732003
 30
0.0
 11
1326.716522887531
 21
3208.307044732003
 31
0.0
  0
ARC
  5
7F73
330
1F
100
AcDbEntity
  8
部品
100
AcDbCircle
 10
1393.636243147753
 20
3223.307044732
 30
0.0
 40
5.0
100
AcDbArc
 50
229.7921812779641
 51
17.58795377400424
  0
ARC
  5
7F74
330
1F
100
AcDbEntity
  8
部品
100
AcDbCircle
 10
1393.636243147753
 20
3253.307044732001
 30
0.0
 40
5.0
100
AcDbArc
 50
342.4120462259957
 51
130.2078187220359
  0
CIRCLE
  5
7F75
330
1F
100
AcDbEntity
  8
部品
100
AcDbCircle
 10
1393.636243147753
 20
3238.307044732001
 30
0.0
 40
7.0
  0
ARC
  5
7F78
330
1F
100
AcDbEntity
  8
部品
100
AcDbCircle
 10
1383.636243147753
 20
3238.307044732001
 30
0.0
 40
20.0
100
AcDbArc
 50
270.0
 51
90.0
  0
LINE
  5
7F79
330
1F
100
AcDbEntity
  8
柱
100
AcDbLine
 10
1383.636243147753
 20
3218.307044732001
 30
0.0
 11
1329.716522887531
 21
3218.307044732001
 31
0.0
  0
LINE
  5
7F7A
330
1F
100
AcDbEntity
  8
CENTER
  6
CENTER
100
AcDbLine
 10
1391.445825375197
 20
3223.307044732
 30
0.0
 11
1340.40748659243
 21
3223.307044732
 31
0.0
  0
LINE
  5
7F7B
330
1F
100
AcDbEntity
  8
CENTER
  6
CENTER
100
AcDbLine
 10
1391.445825375197
 20
3223.307044732
 30
0.0
 11
1396.864999703076
 21
3223.307044732
 31
0.0
  0
LINE
  5
7F7C
330
1F
100
AcDbEntity
  8
CENTER
  6
CENTER
100
AcDbLine
 10
1391.445825375197
 20
3253.307044732001
 30
0.0
 11
1340.40748659243
 21
3253.307044732001
 31
0.0
  0
LINE
  5
7F7D
330
1F
100
AcDbEntity
  8
CENTER
  6
CENTER
100
AcDbLine
 10
1391.445825375197
 20
3253.307044732001
 30
0.0
 11
1396.864999703076
 21
3253.307044732001
 31
0.0
  0
LINE
  5
7F85
330
1F
100
AcDbEntity
  8
部品
100
AcDbLine
 10
1329.716522887532
 20
4554.06915534302
 30
0.0
 11
1329.716522887532
 21
4562.06915534302
 31
0.0
  0
LINE
  5
7F86
330
1F
100
AcDbEntity
  8
部品
100
AcDbLine
 10
1326.716522887531
 20
4554.069155343018
 30
0.0
 11
1326.716522887531
 21
4562.069155343017
 31
0.0
  0
LINE
  5
7F87
330
1F
100
AcDbEntity
  8
部品
100
AcDbLine
 10
1400.216522887531
 20
4569.06915534302
 30
0.0
 11
1400.21652288753
 21
4554.06915534302
 31
0.0
  0
LINE
  5
7F88
330
1F
100
AcDbEntity
  8
部品
100
AcDbLine
 10
1388.216522887532
 20
4569.069155343019
 30
0.0
 11
1388.216522887532
 21
4554.06915534302
 31
0.0
  0
LINE
  5
7F89
330
1F
100
AcDbEntity
  8
部品
100
AcDbLine
 10
1309.21652288753
 20
4554.069155343018
 30
0.0
 11
1404.216522887532
 21
4554.06915534302
 31
0.0
  0
LINE
  5
7F8A
330
1F
100
AcDbEntity
  8
部品
100
AcDbLine
 10
1312.216522887532
 20
4551.069155343017
 30
0.0
 11
1404.216522887532
 21
4551.069155343019
 31
0.0
  0
LINE
  5
7F8B
330
1F
100
AcDbEntity
  8
部品
100
AcDbLine
 10
1312.21652288753
 20
4551.069155343017
 30
0.0
 11
1312.216522887532
 21
4519.069155343019
 31
0.0
  0
LINE
  5
7F8C
330
1F
100
AcDbEntity
  8
部品
100
AcDbLine
 10
1309.216522887532
 20
4519.069155343019
 30
0.0
 11
1312.216522887532
 21
4519.069155343017
 31
0.0
  0
LINE
  5
7F8D
330
1F
100
AcDbEntity
  8
部品
100
AcDbLine
 10
1309.216522887532
 20
4554.069155343017
 30
0.0
 11
1309.216522887532
 21
4519.069155343019
 31
0.0
  0
LINE
  5
7F8E
330
1F
100
AcDbEntity
  8
柱
100
AcDbLine
 10
1329.716522887532
 20
4550.069155343019
 30
0.0
 11
1326.716522887531
 21
4550.069155343019
 31
0.0
  0
LINE
  5
7F8F
330
1F
100
AcDbEntity
  8
柱
100
AcDbLine
 10
1329.716522887532
 20
4536.069155343017
 30
0.0
 11
1326.716522887531
 21
4536.069155343017
 31
0.0
  0
LINE
  5
7F90
330
1F
100
AcDbEntity
  8
部品
100
AcDbLine
 10
1326.716522887531
 20
4536.069155343017
 30
0.0
 11
1326.716522887531
 21
4551.069155343017
 31
0.0
  0
LINE
  5
7F91
330
1F
100
AcDbEntity
  8
部品
100
AcDbLine
 10
1329.716522887532
 20
4536.069155343017
 30
0.0
 11
1329.716522887532
 21
4551.069155343017
 31
0.0
  0
LINE
  5
7F92
330
1F
100
AcDbEntity
  8
部品
100
AcDbLine
 10
1404.216522887532
 20
4554.06915534302
 30
0.0
 11
1404.216522887532
 21
4551.06915534302
 31
0.0
  0
LINE
  5
7F93
330
1F
100
AcDbEntity
  8
部品
100
AcDbLine
 10
1309.216522887532
 20
4630.069155343019
 30
0.0
 11
1404.216522887532
 21
4630.069155343019
 31
0.0
  0
LINE
  5
7F94
330
1F
100
AcDbEntity
  8
部品
100
AcDbLine
 10
1312.21652288753
 20
4633.069155343019
 30
0.0
 11
1404.216522887532
 21
4633.06915534302
 31
0.0
  0
LINE
  5
7F95
330
1F
100
AcDbEntity
  8
部品
100
AcDbLine
 10
1312.21652288753
 20
4633.069155343018
 30
0.0
 11
1312.216522887532
 21
4665.069155343018
 31
0.0
  0
LINE
  5
7F96
330
1F
100
AcDbEntity
  8
部品
100
AcDbLine
 10
1309.216522887532
 20
4665.069155343018
 30
0.0
 11
1312.21652288753
 21
4665.069155343018
 31
0.0
  0
LINE
  5
7F97
330
1F
100
AcDbEntity
  8
部品
100
AcDbLine
 10
1309.21652288753
 20
4630.069155343019
 30
0.0
 11
1309.216522887532
 21
4665.069155343018
 31
0.0
  0
LINE
  5
7F98
330
1F
100
AcDbEntity
  8
柱
100
AcDbLine
 10
1354.216522887532
 20
4622.069155343019
 30
0.0
 11
1316.216522887531
 21
4622.069155343019
 31
0.0
  0
LINE
  5
7F99
330
1F
100
AcDbEntity
  8
柱
100
AcDbLine
 10
1406.716522887531
 20
4615.069155343018
 30
0.0
 11
1406.716522887532
 21
4569.06915534302
 31
0.0
  0
LINE
  5
7F9B
330
1F
100
AcDbEntity
  8
柱
100
AcDbLine
 10
1381.71652288753
 20
4625.069155343019
 30
0.0
 11
1381.71652288753
 21
4569.06915534302
 31
0.0
  0
LINE
  5
7F9D
330
1F
100
AcDbEntity
  8
柱
100
AcDbLine
 10
1329.716522887532
 20
4634.069155343019
 30
0.0
 11
1326.716522887531
 21
4634.069155343019
 31
0.0
  0
LINE
  5
7F9E
330
1F
100
AcDbEntity
  8
部品
100
AcDbLine
 10
1329.716522887532
 20
4633.06915534302
 30
0.0
 11
1329.716522887532
 21
4648.069155343018
 31
0.0
  0
LINE
  5
7F9F
330
1F
100
AcDbEntity
  8
部品
100
AcDbLine
 10
1326.716522887531
 20
4633.069155343019
 30
0.0
 11
1326.716522887531
 21
4648.069155343018
 31
0.0
  0
LINE
  5
7FA0
330
1F
100
AcDbEntity
  8
部品
100
AcDbLine
 10
1329.716522887532
 20
4622.069155343019
 30
0.0
 11
1329.716522887532
 21
4630.069155343019
 31
0.0
  0
LINE
  5
7FA1
330
1F
100
AcDbEntity
  8
部品
100
AcDbLine
 10
1326.716522887531
 20
4622.069155343019
 30
0.0
 11
1326.716522887531
 21
4630.069155343019
 31
0.0
  0
LINE
  5
7FA2
330
1F
100
AcDbEntity
  8
柱
100
AcDbLine
 10
1329.716522887532
 20
4648.069155343018
 30
0.0
 11
1326.716522887531
 21
4648.069155343018
 31
0.0
  0
LINE
  5
7FA3
330
1F
100
AcDbEntity
  8
部品
100
AcDbLine
 10
1404.216522887532
 20
4630.069155343019
 30
0.0
 11
1404.216522887532
 21
4633.06915534302
 31
0.0
  0
LINE
  5
7FA4
330
1F
100
AcDbEntity
  8
部品
100
AcDbLine
 10
1400.216522887536
 20
4615.069155343018
 30
0.0
 11
1400.21652288753
 21
4630.069155343019
 31
0.0
  0
LINE
  5
7FA5
330
1F
100
AcDbEntity
  8
部品
100
AcDbLine
 10
1388.216522887532
 20
4615.069155343018
 30
0.0
 11
1388.216522887532
 21
4630.069155343019
 31
0.0
  0
LINE
  5
7FA6
330
1F
100
AcDbEntity
  8
柱
100
AcDbLine
 10
1342.716522887531
 20
4559.069155343019
 30
0.0
 11
1329.716522887532
 21
4559.069155343019
 31
0.0
  0
LINE
  5
7FA9
330
1F
100
AcDbEntity
  8
柱
100
AcDbLine
 10
1342.716522887531
 20
4625.06915534302
 30
0.0
 11
1329.716522887532
 21
4625.06915534302
 31
0.0
  0
CIRCLE
  5
7FAA
330
1F
100
AcDbEntity
  8
CENTER
100
AcDbCircle
 10
5548.118152625994
 20
2489.840454547779
 30
0.0
 40
436.6062299143672
  0
LINE
  5
7FB1
330
1F
100
AcDbEntity
  8
メッシュ
100
AcDbLine
 10
6265.368152626023
 20
1737.835883064657
 30
0.0
 11
6265.368152626081
 21
3176.416233750093
 31
0.0
  0
LINE
  5
7FB2
330
1F
100
AcDbEntity
  8
メッシュ
100
AcDbLine
 10
6287.86815262603
 20
1737.835883064657
 30
0.0
 11
6287.868152626081
 21
3176.416233750092
 31
0.0
  0
LINE
  5
7FB3
330
1F
100
AcDbEntity
  8
柱
100
AcDbLine
 10
5410.61815262607
 20
2846.021066897609
 30
0.0
 11
5410.618152626081
 21
3172.983715141119
 31
0.0
  0
LINE
  5
7FB4
330
1F
100
AcDbEntity
  8
柱
100
AcDbLine
 10
5610.618152626067
 20
2846.021066897602
 30
0.0
 11
5610.618152626081
 21
3175.5930242542
 31
0.0
  0
LINE
  5
7FB5
330
1F
100
AcDbEntity
  8
柱
100
AcDbLine
 10
5485.618152626067
 20
2846.021066897606
 30
0.0
 11
5485.618152626077
 21
3178.202346577109
 31
0.0
  0
LINE
  5
7FB6
330
1F
100
AcDbEntity
  8
メッシュ
100
AcDbLine
 10
6026.86815262603
 20
1737.835883064657
 30
0.0
 11
6026.86815262608
 21
3176.416233750101
 31
0.0
  0
LINE
  5
7FB7
330
1F
100
AcDbEntity
  8
メッシュ
100
AcDbLine
 10
6004.368152626026
 20
1737.835883064657
 30
0.0
 11
6004.368152626081
 21
3176.416233750102
 31
0.0
  0
LINE
  5
7FB8
330
1F
100
AcDbEntity
  8
メッシュ
100
AcDbLine
 10
5765.868152626026
 20
1737.835883064657
 30
0.0
 11
5765.86815262608
 21
3176.416233750111
 31
0.0
  0
LINE
  5
7FB9
330
1F
100
AcDbEntity
  8
メッシュ
100
AcDbLine
 10
5743.368152626022
 20
1737.835883064657
 30
0.0
 11
5743.36815262608
 21
3176.416233750112
 31
0.0
  0
LINE
  5
7FBC
330
1F
100
AcDbEntity
  8
部品
100
AcDbLine
 10
5610.618152626048
 20
2339.840454547777
 30
0.0
 11
5485.618152626044
 21
2339.840454547781
 31
0.0
  0
LINE
  5
7FBD
330
1F
100
AcDbEntity
  8
部品
100
AcDbLine
 10
5610.618152626059
 20
2639.840454547778
 30
0.0
 11
5485.618152626056
 21
2639.840454547781
 31
0.0
  0
LINE
  5
7FBE
330
1F
100
AcDbEntity
  8
CENTER
  6
CENTER
100
AcDbLine
 10
5635.494909351757
 20
2564.840454547776
 30
0.0
 11
5233.118152625993
 21
2564.84045454779
 31
0.0
  0
LINE
  5
7FBF
330
1F
100
AcDbEntity
  8
CENTER
  6
CENTER
100
AcDbLine
 10
5635.494909351757
 20
2414.840454547776
 30
0.0
 11
5233.118152625993
 21
2414.84045454779
 31
0.0
  0
LINE
  5
7FC0
330
1F
100
AcDbEntity
  8
部品
100
AcDbLine
 10
5498.118152625949
 20
2389.840454547781
 30
0.0
 11
5225.618152626081
 21
2389.840454547782
 31
0.0
  0
LINE
  5
7FC1
330
1F
100
AcDbEntity
  8
部品
100
AcDbLine
 10
5498.118152625953
 20
2589.840454547781
 30
0.0
 11
5123.118152625949
 21
2589.840454547781
 31
0.0
  0
LINE
  5
7FC2
330
1F
100
AcDbEntity
  8
CENTER
  6
CENTER
100
AcDbLine
 10
5635.494909351757
 20
2489.840454547776
 30
0.0
 11
5323.466314081779
 21
2489.840454547787
 31
0.0
  0
LINE
  5
7FC5
330
1F
100
AcDbEntity
  8
部品
100
AcDbLine
 10
5410.618152626056
 20
2389.840454547781
 30
0.0
 11
5410.618152626037
 21
1904.640480592859
 31
0.0
  0
LINE
  5
7FC6
330
1F
100
AcDbEntity
  8
部品
100
AcDbLine
 10
5485.618152626044
 20
2389.840454547781
 30
0.0
 11
5485.618152626027
 21
1904.640480592856
 31
0.0
  0
LINE
  5
7FD6
330
1F
100
AcDbEntity
  8
柱
100
AcDbLine
 10
5485.618152626027
 20
1904.640480592856
 30
0.0
 11
5485.618152626019
 21
1756.124177249171
 31
0.0
  0
LINE
  5
7FD7
330
1F
100
AcDbEntity
  8
柱
100
AcDbLine
 10
5410.618152626037
 20
1904.640480592859
 30
0.0
 11
5410.618152626033
 21
1756.124177249174
 31
0.0
  0
LINE
  5
7FF6
330
1F
100
AcDbEntity
  8
部品
100
AcDbLine
 10
5225.618152626081
 20
2524.840454547791
 30
0.0
 11
5225.618152626081
 21
2339.840454547792
 31
0.0
  0
LINE
  5
7FF7
330
1F
100
AcDbEntity
  8
部品
100
AcDbLine
 10
5210.61815262608
 20
2524.840454547791
 30
0.0
 11
5210.61815262608
 21
2339.840454547792
 31
0.0
  0
LINE
  5
7FF8
330
1F
100
AcDbEntity
  8
部品
100
AcDbLine
 10
5138.118152625949
 20
2589.840454547781
 30
0.0
 11
5138.118152625949
 21
2389.840454547781
 31
0.0
  0
LINE
  5
7FF9
330
1F
100
AcDbEntity
  8
部品
100
AcDbLine
 10
5123.118152625949
 20
2589.840454547781
 30
0.0
 11
5123.118152625949
 21
2389.840454547781
 31
0.0
  0
LINE
  5
7FFB
330
1F
100
AcDbEntity
  8
部品
100
AcDbLine
 10
5210.618152626082
 20
2389.840454547781
 30
0.0
 11
5185.618152626062
 21
2389.840454547781
 31
0.0
  0
LINE
  5
801A
330
1F
100
AcDbEntity
  8
部品
100
AcDbLine
 10
5290.376883117914
 20
2339.840454547787
 30
0.0
 11
5210.61815262608
 21
2339.84045454779
 31
0.0
  0
LINE
  5
801D
330
1F
100
AcDbEntity
  8
部品
100
AcDbLine
 10
5210.618152626085
 20
2389.840454547781
 30
0.0
 11
5203.118152626012
 21
2389.840454547781
 31
0.0
  0
LINE
  5
801E
330
1F
100
AcDbEntity
  8
部品
100
AcDbLine
 10
5290.376883117912
 20
2389.840454547779
 30
0.0
 11
5290.376883117912
 21
2339.840454547785
 31
0.0
  0
LINE
  5
801F
330
1F
100
AcDbEntity
  8
CENTER
  6
CENTER
100
AcDbLine
 10
5323.466314081779
 20
2489.840454547787
 30
0.0
 11
5024.841921720348
 21
2489.840454547799
 31
0.0
  0
LINE
  5
8023
330
1F
100
AcDbEntity
  8
部品
100
AcDbLine
 10
5290.376883117912
 20
2639.840454547785
 30
0.0
 11
5290.376883117912
 21
2589.84045454778
 31
0.0
  0
LINE
  5
8024
330
1F
100
AcDbEntity
  8
部品
100
AcDbLine
 10
5410.61815262607
 20
2846.021066897609
 30
0.0
 11
5410.618152626059
 21
2589.840454547781
 31
0.0
  0
LINE
  5
8025
330
1F
100
AcDbEntity
  8
部品
100
AcDbLine
 10
5485.618152626067
 20
2846.021066897606
 30
0.0
 11
5485.618152626051
 21
2589.840454547781
 31
0.0
  0
LINE
  5
8029
330
1F
100
AcDbEntity
  8
部品
100
AcDbLine
 10
5225.618152626081
 20
2524.840454547791
 30
0.0
 11
5210.618152626088
 21
2524.840454547791
 31
0.0
  0
LINE
  5
802C
330
1F
100
AcDbEntity
  8
部品
100
AcDbLine
 10
5290.376883117914
 20
2639.840454547787
 30
0.0
 11
5225.618152626083
 21
2639.840454547789
 31
0.0
  0
LINE
  5
8032
330
1F
100
AcDbEntity
  8
メッシュ
100
AcDbLine
 10
6004.368152626033
 20
1904.640480592837
 30
0.0
 11
6004.368152626048
 21
2289.840454547762
 31
0.0
  0
LINE
  5
8033
330
1F
100
AcDbEntity
  8
メッシュ
100
AcDbLine
 10
6265.368152626034
 20
1904.640480592828
 30
0.0
 11
6265.368152626048
 21
2289.840454547752
 31
0.0
  0
LINE
  5
8034
330
1F
100
AcDbEntity
  8
メッシュ
100
AcDbLine
 10
6287.868152626034
 20
1904.640480592827
 30
0.0
 11
6287.868152626048
 21
2289.840454547751
 31
0.0
  0
LINE
  5
8035
330
1F
100
AcDbEntity
  8
メッシュ
100
AcDbLine
 10
6026.868152626033
 20
1904.640480592836
 30
0.0
 11
6026.868152626048
 21
2289.840454547761
 31
0.0
  0
LINE
  5
8036
330
1F
100
AcDbEntity
  8
メッシュ
100
AcDbLine
 10
5743.368152626033
 20
1904.640480592847
 30
0.0
 11
5743.368152626044
 21
2289.840454547772
 31
0.0
  0
LINE
  5
8037
330
1F
100
AcDbEntity
  8
メッシュ
100
AcDbLine
 10
5765.868152626033
 20
1904.640480592846
 30
0.0
 11
5765.868152626048
 21
2289.840454547771
 31
0.0
  0
LINE
  5
8038
330
1F
100
AcDbEntity
  8
部品
100
AcDbLine
 10
5610.618152626067
 20
2846.021066897602
 30
0.0
 11
5610.618152626034
 21
1904.640480592852
 31
0.0
  0
LINE
  5
8039
330
1F
100
AcDbEntity
  8
メッシュ
100
AcDbLine
 10
5743.368152626033
 20
1904.640480592847
 30
0.0
 11
5743.368152626026
 21
1737.835883064616
 31
0.0
  0
LINE
  5
803A
330
1F
100
AcDbEntity
  8
メッシュ
100
AcDbLine
 10
5765.868152626033
 20
1904.640480592846
 30
0.0
 11
5765.868152626026
 21
1737.835883064615
 31
0.0
  0
LINE
  5
803B
330
1F
100
AcDbEntity
  8
柱
100
AcDbLine
 10
5610.618152626034
 20
1904.640480592852
 30
0.0
 11
5610.618152626027
 21
1748.296223490267
 31
0.0
  0
LINE
  5
803C
330
1F
100
AcDbEntity
  8
メッシュ
100
AcDbLine
 10
6026.868152626033
 20
1904.640480592836
 30
0.0
 11
6026.868152626025
 21
1737.835883064605
 31
0.0
  0
LINE
  5
803D
330
1F
100
AcDbEntity
  8
メッシュ
100
AcDbLine
 10
6004.368152626033
 20
1904.640480592837
 30
0.0
 11
6004.368152626026
 21
1737.835883064606
 31
0.0
  0
LINE
  5
803E
330
1F
100
AcDbEntity
  8
メッシュ
100
AcDbLine
 10
6287.868152626034
 20
1904.640480592827
 30
0.0
 11
6287.868152626026
 21
1737.835883064596
 31
0.0
  0
LINE
  5
803F
330
1F
100
AcDbEntity
  8
メッシュ
100
AcDbLine
 10
6265.368152626034
 20
1904.640480592828
 30
0.0
 11
6265.368152626026
 21
1737.835883064597
 31
0.0
  0
LINE
  5
8040
330
1F
100
AcDbEntity
  8
メッシュ
100
AcDbLine
 10
6165.618152626045
 20
2201.590454547757
 30
0.0
 11
6265.368152626044
 21
2201.590454547753
 31
0.0
  0
LINE
  5
8041
330
1F
100
AcDbEntity
  8
メッシュ
100
AcDbLine
 10
6165.618152626045
 20
2179.090454547757
 30
0.0
 11
6265.368152626044
 21
2179.090454547753
 31
0.0
  0
LINE
  5
8042
330
1F
100
AcDbEntity
  8
メッシュ
100
AcDbLine
 10
6026.868152626066
 20
2779.090454547761
 30
0.0
 11
6265.368152626066
 21
2779.090454547752
 31
0.0
  0
LINE
  5
8043
330
1F
100
AcDbEntity
  8
メッシュ
100
AcDbLine
 10
6026.868152626066
 20
2801.590454547761
 30
0.0
 11
6265.368152626066
 21
2801.590454547752
 31
0.0
  0
LINE
  5
8044
330
1F
100
AcDbEntity
  8
メッシュ
100
AcDbLine
 10
6026.868152626037
 20
2051.590454547761
 30
0.0
 11
6265.368152626037
 21
2051.590454547753
 31
0.0
  0
LINE
  5
8045
330
1F
100
AcDbEntity
  8
メッシュ
100
AcDbLine
 10
6026.868152626037
 20
2029.090454547762
 30
0.0
 11
6265.368152626037
 21
2029.090454547753
 31
0.0
  0
LINE
  5
8046
330
1F
100
AcDbEntity
  8
柱
100
AcDbLine
 10
6160.618152626041
 20
2097.840454547757
 30
0.0
 11
6265.368152626041
 21
2097.840454547752
 31
0.0
  0
LINE
  5
8047
330
1F
100
AcDbEntity
  8
柱
100
AcDbLine
 10
6160.618152626044
 20
2172.840454547757
 30
0.0
 11
6265.368152626044
 21
2172.840454547753
 31
0.0
  0
ARC
  5
8048
330
1F
100
AcDbEntity
  8
部品
100
AcDbCircle
 10
5548.118152625986
 20
2414.840454547779
 30
0.0
 40
25.0
100
AcDbArc
 50
229.7921812779473
 51
17.58795377407876
  0
LINE
  5
8049
330
1F
100
AcDbEntity
  8
CENTER
100
AcDbLine
 10
5548.118152625994
 20
2403.237914169363
 30
0.0
 11
5548.118152625994
 21
2576.4429949262
 31
0.0
  0
ARC
  5
804A
330
1F
100
AcDbEntity
  8
部品
100
AcDbCircle
 10
5498.118152625949
 20
2489.840454547781
 30
0.0
 40
100.0
100
AcDbArc
 50
270.0
 51
90.0
  0
LINE
  5
804B
330
1F
100
AcDbEntity
  8
柱
100
AcDbLine
 10
5765.868152626044
 20
2172.840454547771
 30
0.0
 11
6004.368152626044
 21
2172.840454547762
 31
0.0
  0
LINE
  5
804C
330
1F
100
AcDbEntity
  8
柱
100
AcDbLine
 10
5765.86815262604
 20
2097.840454547771
 30
0.0
 11
6004.368152626041
 21
2097.840454547762
 31
0.0
  0
LINE
  5
804D
330
1F
100
AcDbEntity
  8
メッシュ
100
AcDbLine
 10
5765.868152626044
 20
2179.090454547771
 30
0.0
 11
6004.368152626044
 21
2179.090454547762
 31
0.0
  0
LINE
  5
804E
330
1F
100
AcDbEntity
  8
メッシュ
100
AcDbLine
 10
5765.868152626044
 20
2201.590454547771
 30
0.0
 11
6004.368152626044
 21
2201.590454547762
 31
0.0
  0
LINE
  5
804F
330
1F
100
AcDbEntity
  8
メッシュ
100
AcDbLine
 10
5765.868152626037
 20
2029.090454547771
 30
0.0
 11
6004.368152626037
 21
2029.090454547763
 31
0.0
  0
LINE
  5
8050
330
1F
100
AcDbEntity
  8
メッシュ
100
AcDbLine
 10
5765.86815262604
 20
2051.590454547771
 30
0.0
 11
6004.368152626037
 21
2051.590454547762
 31
0.0
  0
LINE
  5
8051
330
1F
100
AcDbEntity
  8
メッシュ
100
AcDbLine
 10
5635.618152626044
 20
2179.090454547775
 30
0.0
 11
5635.618152626044
 21
2201.590454547777
 31
0.0
  0
LINE
  5
8052
330
1F
100
AcDbEntity
  8
部品
100
AcDbLine
 10
5735.618152626044
 20
2247.155280735096
 30
0.0
 11
5735.618152626041
 21
2143.133095301562
 31
0.0
  0
LINE
  5
8053
330
1F
100
AcDbEntity
  8
メッシュ
100
AcDbLine
 10
5635.618152626037
 20
2051.590454547776
 30
0.0
 11
5743.368152626037
 21
2051.590454547772
 31
0.0
  0
LINE
  5
8054
330
1F
100
AcDbEntity
  8
メッシュ
100
AcDbLine
 10
5635.618152626037
 20
2029.090454547775
 30
0.0
 11
5743.368152626037
 21
2029.090454547772
 31
0.0
  0
LINE
  5
8055
330
1F
100
AcDbEntity
  8
メッシュ
100
AcDbLine
 10
5635.618152626044
 20
2179.090454547775
 30
0.0
 11
5743.368152626044
 21
2179.090454547772
 31
0.0
  0
LINE
  5
8056
330
1F
100
AcDbEntity
  8
柱
100
AcDbLine
 10
5648.11815262604
 20
2097.840454547775
 30
0.0
 11
5743.36815262604
 21
2097.840454547772
 31
0.0
  0
LINE
  5
8057
330
1F
100
AcDbEntity
  8
柱
100
AcDbLine
 10
5648.118152626044
 20
2172.840454547776
 30
0.0
 11
5743.368152626044
 21
2172.840454547772
 31
0.0
  0
LINE
  5
8058
330
1F
100
AcDbEntity
  8
メッシュ
100
AcDbLine
 10
5635.618152626037
 20
2029.090454547775
 30
0.0
 11
5635.618152626037
 21
2051.590454547776
 31
0.0
  0
LINE
  5
8059
330
1F
100
AcDbEntity
  8
柱
100
AcDbLine
 10
5648.118152626044
 20
2164.840454547776
 30
0.0
 11
5610.618152626044
 21
2164.840454547777
 31
0.0
  0
LINE
  5
805A
330
1F
100
AcDbEntity
  8
部品
100
AcDbLine
 10
5648.118152626044
 20
2172.840454547776
 30
0.0
 11
5648.11815262604
 21
2097.840454547775
 31
0.0
  0
LINE
  5
805B
330
1F
100
AcDbEntity
  8
柱
100
AcDbLine
 10
5610.618152626041
 20
2114.840454547777
 30
0.0
 11
5648.11815262604
 21
2114.840454547775
 31
0.0
  0
LINE
  5
805C
330
1F
100
AcDbEntity
  8
部品
100
AcDbLine
 10
5700.618152626044
 20
2172.840454547773
 30
0.0
 11
5770.618152626044
 21
2172.840454547771
 31
0.0
  0
LINE
  5
805D
330
1F
100
AcDbEntity
  8
部品
100
AcDbLine
 10
5700.618152626044
 20
2172.840454547773
 30
0.0
 11
5700.618152626044
 21
2171.840454547771
 31
0.0
  0
ARC
  5
805E
330
1F
100
AcDbEntity
  8
部品
100
AcDbCircle
 10
5725.618152626044
 20
2172.840454547772
 30
0.0
 40
25.0
100
AcDbArc
 50
165.522487814064
 51
180.0
  0
ARC
  5
805F
330
1F
100
AcDbEntity
  8
部品
100
AcDbCircle
 10
5745.618152626044
 20
2172.840454547772
 30
0.0
 40
25.0
100
AcDbArc
 50
0.0
 51
14.47751218593597
  0
LINE
  5
8060
330
1F
100
AcDbEntity
  8
部品
100
AcDbLine
 10
5770.618152626044
 20
2172.840454547771
 30
0.0
 11
5770.618152626044
 21
2171.840454547769
 31
0.0
  0
LINE
  5
8061
330
1F
100
AcDbEntity
  8
メッシュ
100
AcDbLine
 10
5635.618152626044
 20
2201.590454547776
 30
0.0
 11
5743.368152626044
 21
2201.590454547772
 31
0.0
  0
LINE
  5
8062
330
1F
100
AcDbEntity
  8
部品
100
AcDbLine
 10
6165.618152626045
 20
2207.840454547756
 30
0.0
 11
6165.618152626045
 21
2172.840454547757
 31
0.0
  0
LINE
  5
8063
330
1F
100
AcDbEntity
  8
部品
100
AcDbLine
 10
6055.618152626045
 20
2199.245941570115
 30
0.0
 11
6055.618152626045
 21
2179.09045454776
 31
0.0
  0
LINE
  5
8064
330
1F
100
AcDbEntity
  8
部品
100
AcDbLine
 10
6155.618152626044
 20
2197.840454547757
 30
0.0
 11
6155.618152626044
 21
2182.840454547756
 31
0.0
  0
LINE
  5
8065
330
1F
100
AcDbEntity
  8
部品
100
AcDbLine
 10
6065.618152626044
 20
2197.84045454776
 30
0.0
 11
6065.618152626044
 21
2182.84045454776
 31
0.0
  0
LINE
  5
8066
330
1F
100
AcDbEntity
  8
部品
100
AcDbLine
 10
6110.618152626044
 20
2250.262058419154
 30
0.0
 11
6110.618152626044
 21
2139.184706843793
 31
0.0
  0
LINE
  5
8067
330
1F
100
AcDbEntity
  8
部品
100
AcDbLine
 10
6035.618152626044
 20
2250.262058419157
 30
0.0
 11
6035.618152626041
 21
2139.184706843796
 31
0.0
  0
LINE
  5
8068
330
1F
100
AcDbEntity
  8
柱
100
AcDbLine
 10
6026.868152626041
 20
2097.840454547761
 30
0.0
 11
6160.618152626041
 21
2097.840454547757
 31
0.0
  0
LINE
  5
8069
330
1F
100
AcDbEntity
  8
柱
100
AcDbLine
 10
6026.868152626044
 20
2172.840454547761
 30
0.0
 11
6160.618152626044
 21
2172.840454547757
 31
0.0
  0
LINE
  5
806A
330
1F
100
AcDbEntity
  8
柱
100
AcDbLine
 10
6065.618152626044
 20
2182.84045454776
 30
0.0
 11
6155.618152626044
 21
2182.840454547756
 31
0.0
  0
LINE
  5
806B
330
1F
100
AcDbEntity
  8
メッシュ
100
AcDbLine
 10
6026.868152626044
 20
2179.090454547761
 30
0.0
 11
6055.618152626041
 21
2179.09045454776
 31
0.0
  0
LINE
  5
806C
330
1F
100
AcDbEntity
  8
部品
100
AcDbLine
 10
6055.618152626045
 20
2179.09045454776
 30
0.0
 11
6055.618152626045
 21
2172.840454547761
 31
0.0
  0
LINE
  5
806D
330
1F
100
AcDbEntity
  8
部品
100
AcDbLine
 10
6120.618152626044
 20
2232.840454547758
 30
0.0
 11
6100.618152626044
 21
2232.840454547758
 31
0.0
  0
LINE
  5
806E
330
1F
100
AcDbEntity
  8
部品
100
AcDbLine
 10
6075.618152626044
 20
2207.840454547759
 30
0.0
 11
6145.618152626044
 21
2207.840454547758
 31
0.0
  0
LINE
  5
806F
330
1F
100
AcDbEntity
  8
柱
100
AcDbLine
 10
6065.618152626044
 20
2197.84045454776
 30
0.0
 11
6155.618152626044
 21
2197.840454547757
 31
0.0
  0
LINE
  5
8070
330
1F
100
AcDbEntity
  8
柱
100
AcDbLine
 10
6055.618152626045
 20
2207.84045454776
 30
0.0
 11
6165.618152626045
 21
2207.840454547756
 31
0.0
  0
LINE
  5
8071
330
1F
100
AcDbEntity
  8
部品
100
AcDbLine
 10
6075.618152626044
 20
2207.840454547759
 30
0.0
 11
6075.618152626044
 21
2206.840454547757
 31
0.0
  0
ARC
  5
8072
330
1F
100
AcDbEntity
  8
部品
100
AcDbCircle
 10
6100.618152626044
 20
2207.840454547758
 30
0.0
 40
25.0
100
AcDbArc
 50
90.0
 51
180.0
  0
LINE
  5
8073
330
1F
100
AcDbEntity
  8
メッシュ
100
AcDbLine
 10
6026.868152626044
 20
2201.590454547761
 30
0.0
 11
6055.618152626045
 21
2201.59045454776
 31
0.0
  0
LINE
  5
8074
330
1F
100
AcDbEntity
  8
部品
100
AcDbLine
 10
6055.618152626045
 20
2199.245941570115
 30
0.0
 11
6055.618152626045
 21
2207.840454547761
 31
0.0
  0
ARC
  5
8075
330
1F
100
AcDbEntity
  8
部品
100
AcDbCircle
 10
6120.618152626044
 20
2207.840454547758
 30
0.0
 40
25.0
100
AcDbArc
 50
0.0
 51
90.0
  0
LINE
  5
8076
330
1F
100
AcDbEntity
  8
部品
100
AcDbLine
 10
6145.618152626044
 20
2207.840454547758
 30
0.0
 11
6145.618152626044
 21
2206.840454547756
 31
0.0
  0
LINE
  5
8077
330
1F
100
AcDbEntity
  8
メッシュ
100
AcDbLine
 10
5765.868152626066
 20
2779.090454547771
 30
0.0
 11
6004.368152626066
 21
2779.090454547762
 31
0.0
  0
LINE
  5
8078
330
1F
100
AcDbEntity
  8
メッシュ
100
AcDbLine
 10
5765.868152626066
 20
2801.590454547771
 30
0.0
 11
6004.368152626066
 21
2801.590454547762
 31
0.0
  0
LINE
  5
8079
330
1F
100
AcDbEntity
  8
部品
100
AcDbLine
 10
5566.118152625993
 20
2494.840454547779
 30
0.0
 11
5566.118152625993
 21
2484.840454547779
 31
0.0
  0
ARC
  5
807A
330
1F
100
AcDbEntity
  8
部品
100
AcDbCircle
 10
5558.118152625993
 20
2499.84045454778
 30
0.0
 40
5.0
100
AcDbArc
 50
180.0
 51
270.0
  0
ARC
  5
807B
330
1F
100
AcDbEntity
  8
部品
100
AcDbCircle
 10
5538.118152625994
 20
2499.84045454778
 30
0.0
 40
5.0
100
AcDbArc
 50
270.0
 51
0.0
  0
LINE
  5
807C
330
1F
100
AcDbEntity
  8
部品
100
AcDbLine
 10
5530.118152625994
 20
2494.840454547781
 30
0.0
 11
5530.118152625994
 21
2484.84045454778
 31
0.0
  0
LINE
  5
807D
330
1F
100
AcDbEntity
  8
部品
100
AcDbLine
 10
5566.118152625993
 20
2484.840454547779
 30
0.0
 11
5558.118152625993
 21
2484.840454547779
 31
0.0
  0
ARC
  5
807E
330
1F
100
AcDbEntity
  8
部品
100
AcDbCircle
 10
5558.118152625993
 20
2479.84045454778
 30
0.0
 40
5.0
100
AcDbArc
 50
90.0
 51
180.0
  0
ARC
  5
807F
330
1F
100
AcDbEntity
  8
部品
100
AcDbCircle
 10
5538.118152625994
 20
2479.84045454778
 30
0.0
 40
5.0
100
AcDbArc
 50
0.0
 51
90.0
  0
LINE
  5
8080
330
1F
100
AcDbEntity
  8
部品
100
AcDbLine
 10
5553.118152625994
 20
2479.84045454778
 30
0.0
 11
5553.118152625994
 21
2471.840454547779
 31
0.0
  0
LINE
  5
8081
330
1F
100
AcDbEntity
  8
部品
100
AcDbLine
 10
5543.118152625993
 20
2479.84045454778
 30
0.0
 11
5543.118152625993
 21
2471.840454547779
 31
0.0
  0
LINE
  5
8082
330
1F
100
AcDbEntity
  8
部品
100
AcDbLine
 10
5538.118152625994
 20
2484.840454547779
 30
0.0
 11
5530.118152625994
 21
2484.84045454778
 31
0.0
  0
LINE
  5
8083
330
1F
100
AcDbEntity
  8
部品
100
AcDbLine
 10
5553.118152625994
 20
2471.840454547779
 30
0.0
 11
5543.118152625993
 21
2471.840454547779
 31
0.0
  0
LINE
  5
8084
330
1F
100
AcDbEntity
  8
部品
100
AcDbLine
 10
5566.118152625993
 20
2494.840454547779
 30
0.0
 11
5558.118152625993
 21
2494.840454547779
 31
0.0
  0
LINE
  5
8085
330
1F
100
AcDbEntity
  8
部品
100
AcDbLine
 10
5538.118152625994
 20
2494.840454547779
 30
0.0
 11
5530.118152625994
 21
2494.840454547781
 31
0.0
  0
LINE
  5
8086
330
1F
100
AcDbEntity
  8
部品
100
AcDbLine
 10
5543.118152625993
 20
2507.840454547779
 30
0.0
 11
5543.118152625993
 21
2499.84045454778
 31
0.0
  0
LINE
  5
8087
330
1F
100
AcDbEntity
  8
部品
100
AcDbLine
 10
5553.118152625994
 20
2507.840454547779
 30
0.0
 11
5553.118152625994
 21
2499.84045454778
 31
0.0
  0
LINE
  5
8088
330
1F
100
AcDbEntity
  8
部品
100
AcDbLine
 10
5553.118152625997
 20
2507.840454547779
 30
0.0
 11
5543.118152625993
 21
2507.840454547779
 31
0.0
  0
CIRCLE
  5
8089
330
1F
100
AcDbEntity
  8
部品
100
AcDbCircle
 10
5548.118152625994
 20
2489.840454547779
 30
0.0
 40
35.0
  0
ARC
  5
808A
330
1F
100
AcDbEntity
  8
部品
100
AcDbCircle
 10
5548.118152625994
 20
2564.840454547779
 30
0.0
 40
25.0
100
AcDbArc
 50
342.4120462259212
 51
130.2078187220527
  0
LINE
  5
808B
330
1F
100
AcDbEntity
  8
メッシュ
100
AcDbLine
 10
5635.618152626066
 20
2801.590454547776
 30
0.0
 11
5743.368152626066
 21
2801.590454547772
 31
0.0
  0
LINE
  5
808C
330
1F
100
AcDbEntity
  8
メッシュ
100
AcDbLine
 10
5635.618152626066
 20
2779.090454547776
 30
0.0
 11
5743.368152626066
 21
2779.090454547772
 31
0.0
  0
LINE
  5
808D
330
1F
100
AcDbEntity
  8
メッシュ
100
AcDbLine
 10
5635.618152626062
 20
2779.090454547777
 30
0.0
 11
5635.618152626066
 21
2801.590454547776
 31
0.0
  0
LINE
  5
808E
330
1F
100
AcDbEntity
  8
柱
100
AcDbLine
 10
6287.868152626041
 20
2097.840454547751
 30
0.0
 11
6388.224560746075
 21
2097.840454547748
 31
0.0
  0
LINE
  5
808F
330
1F
100
AcDbEntity
  8
柱
100
AcDbLine
 10
6287.868152626044
 20
2172.840454547752
 30
0.0
 11
6388.224560746075
 21
2172.840454547749
 31
0.0
  0
LINE
  5
8090
330
1F
100
AcDbEntity
  8
メッシュ
100
AcDbLine
 10
6287.868152626037
 20
2029.090454547752
 30
0.0
 11
6388.224560746075
 21
2029.090454547749
 31
0.0
  0
LINE
  5
8091
330
1F
100
AcDbEntity
  8
メッシュ
100
AcDbLine
 10
6287.868152626037
 20
2051.590454547752
 30
0.0
 11
6388.224560746075
 21
2051.590454547748
 31
0.0
  0
LINE
  5
8092
330
1F
100
AcDbEntity
  8
メッシュ
100
AcDbLine
 10
6287.868152626041
 20
2179.090454547752
 30
0.0
 11
6388.224560746075
 21
2179.090454547749
 31
0.0
  0
LINE
  5
8093
330
1F
100
AcDbEntity
  8
メッシュ
100
AcDbLine
 10
6287.868152626044
 20
2201.590454547752
 30
0.0
 11
6388.224560746075
 21
2201.590454547749
 31
0.0
  0
LINE
  5
8094
330
1F
100
AcDbEntity
  8
メッシュ
100
AcDbLine
 10
6287.868152626066
 20
2779.090454547751
 30
0.0
 11
6388.224560746075
 21
2779.090454547747
 31
0.0
  0
LINE
  5
8095
330
1F
100
AcDbEntity
  8
メッシュ
100
AcDbLine
 10
6287.868152626066
 20
2801.590454547751
 30
0.0
 11
6388.224560746075
 21
2801.590454547747
 31
0.0
  0
LINE
  5
8096
330
1F
100
AcDbEntity
  8
柱
100
AcDbLine
 10
5610.618152625989
 20
3812.622502930903
 30
0.0
 11
5485.618152625989
 21
3812.622502930904
 31
0.0
  0
LINE
  5
8097
330
1F
100
AcDbEntity
  8
柱
100
AcDbLine
 10
5485.618152625994
 20
4042.622502930902
 30
0.0
 11
5610.618152625994
 21
4042.622502930901
 31
0.0
  0
LINE
  5
8098
330
1F
100
AcDbEntity
  8
DIMS
100
AcDbLine
 10
5410.618152626001
 20
3536.680239985398
 30
0.0
 11
6388.224560746075
 21
3536.6802399854
 31
0.0
  0
LINE
  5
8099
330
1F
100
AcDbEntity
  8
柱
100
AcDbLine
 10
5604.61815262599
 20
3833.622502930904
 30
0.0
 11
5491.618152625989
 21
3833.622502930904
 31
0.0
  0
LINE
  5
809A
330
1F
100
AcDbEntity
  8
柱
100
AcDbLine
 10
5491.618152625993
 20
4021.622502930902
 30
0.0
 11
5604.618152625993
 21
4021.622502930902
 31
0.0
  0
LINE
  5
809B
330
1F
100
AcDbEntity
  8
柱
100
AcDbLine
 10
5610.618152625989
 20
3827.622502930903
 30
0.0
 11
5485.618152625989
 21
3827.622502930904
 31
0.0
  0
LINE
  5
809C
330
1F
100
AcDbEntity
  8
柱
100
AcDbLine
 10
5485.618152625994
 20
4027.622502930903
 30
0.0
 11
5610.618152625994
 21
4027.622502930901
 31
0.0
  0
LINE
  5
809E
330
1F
100
AcDbEntity
  8
部品
100
AcDbLine
 10
5123.118152625949
 20
4117.62250293091
 30
0.0
 11
5598.11815262595
 21
4117.622502930902
 31
0.0
  0
LINE
  5
809F
330
1F
100
AcDbEntity
  8
部品
100
AcDbLine
 10
5123.118152625949
 20
3737.622502930911
 30
0.0
 11
5598.11815262595
 21
3737.622502930904
 31
0.0
  0
LINE
  5
80A0
330
1F
100
AcDbEntity
  8
部品
100
AcDbLine
 10
5138.118152625949
 20
3722.622502930909
 30
0.0
 11
5598.11815262595
 21
3722.622502930903
 31
0.0
  0
LINE
  5
80A1
330
1F
100
AcDbEntity
  8
部品
100
AcDbLine
 10
5138.118152625949
 20
4132.622502930909
 30
0.0
 11
5598.11815262595
 21
4132.622502930902
 31
0.0
  0
LINE
  5
80A3
330
1F
100
AcDbEntity
  8
DIMS
100
AcDbLine
 10
5410.618152626001
 20
3805.122502930914
 30
0.0
 11
5410.618152626001
 21
3509.346995962505
 31
0.0
  0
LINE
  5
80A4
330
1F
100
AcDbEntity
  8
DIMS
100
AcDbLine
 10
5485.618152625997
 20
3805.122502930914
 30
0.0
 11
5485.618152625997
 21
3509.346995962505
 31
0.0
  0
LINE
  5
80A5
330
1F
100
AcDbEntity
  8
柱
100
AcDbLine
 10
5225.618152626079
 20
3722.622502930909
 30
0.0
 11
5225.618152626079
 21
3647.622502930906
 31
0.0
  0
LINE
  5
80A6
330
1F
100
AcDbEntity
  8
柱
100
AcDbLine
 10
5210.618152626079
 20
3722.622502930909
 30
0.0
 11
5210.618152626079
 21
3647.622502930906
 31
0.0
  0
LINE
  5
80A7
330
1F
100
AcDbEntity
  8
部品
100
AcDbLine
 10
5138.118152625949
 20
3562.622502930909
 30
0.0
 11
5138.118152625949
 21
3722.622502930911
 31
0.0
  0
LINE
  5
80A8
330
1F
100
AcDbEntity
  8
部品
100
AcDbLine
 10
5123.118152625949
 20
3562.62250293091
 30
0.0
 11
5123.118152625949
 21
3737.62250293091
 31
0.0
  0
LINE
  5
80AA
330
1F
100
AcDbEntity
  8
部品
100
AcDbLine
 10
5123.118152625949
 20
3562.62250293091
 30
0.0
 11
5138.118152625949
 21
3562.62250293091
 31
0.0
  0
LINE
  5
80AB
330
1F
100
AcDbEntity
  8
柱
100
AcDbLine
 10
5225.618152626079
 20
3647.622502930907
 30
0.0
 11
5210.618152626079
 21
3647.622502930907
 31
0.0
  0
LINE
  5
80AC
330
1F
100
AcDbEntity
  8
CENTER
  6
CENTER
100
AcDbLine
 10
5238.118152626083
 20
3677.622502930908
 30
0.0
 11
5203.118152626084
 21
3677.622502930909
 31
0.0
  0
CIRCLE
  5
80AD
330
1F
100
AcDbEntity
  8
DIMS
100
AcDbCircle
 10
5410.618152626001
 20
3536.680239985398
 30
0.0
 40
5.0
  0
CIRCLE
  5
80AE
330
1F
100
AcDbEntity
  8
DIMS
100
AcDbCircle
 10
5485.618152625997
 20
3536.680239985398
 30
0.0
 40
5.0
  0
TEXT
  5
80AF
330
1F
100
AcDbEntity
  8
DIMS
100
AcDbText
 10
5411.053204337088
 20
3553.776138849683
 30
0.0
 40
50.0
  1
15
  7
ｽﾀｲﾙ1
100
AcDbText
  0
LINE
  5
80D2
330
1F
100
AcDbEntity
  8
部品
100
AcDbLine
 10
5123.118152625949
 20
4117.62250293091
 30
0.0
 11
5123.118152625949
 21
4292.622502930909
 31
0.0
  0
LINE
  5
80D3
330
1F
100
AcDbEntity
  8
部品
100
AcDbLine
 10
5138.118152625949
 20
4132.622502930909
 30
0.0
 11
5138.118152625949
 21
4292.622502930908
 31
0.0
  0
LINE
  5
80DB
330
1F
100
AcDbEntity
  8
柱
100
AcDbLine
 10
5248.118152625994
 20
4077.622502930906
 30
0.0
 11
5110.618152626081
 21
4077.62250293091
 31
0.0
  0
LINE
  5
80EC
330
1F
100
AcDbEntity
  8
部品
100
AcDbLine
 10
5410.618152625994
 20
4077.622502930903
 30
0.0
 11
5410.618152625988
 21
3777.622502930906
 31
0.0
  0
LINE
  5
80F0
330
1F
100
AcDbEntity
  8
部品
100
AcDbLine
 10
5491.618152625993
 20
4021.622502930902
 30
0.0
 11
5491.618152625989
 21
3833.622502930904
 31
0.0
  0
LINE
  5
80F1
330
1F
100
AcDbEntity
  8
部品
100
AcDbLine
 10
5485.618152625994
 20
4042.622502930902
 30
0.0
 11
5485.618152625989
 21
3812.622502930904
 31
0.0
  0
LINE
  5
80F2
330
1F
100
AcDbEntity
  8
柱
100
AcDbLine
 10
5290.376883117912
 20
3762.622502930906
 30
0.0
 11
5225.618152626079
 21
3762.622502930907
 31
0.0
  0
LINE
  5
80F3
330
1F
100
AcDbEntity
  8
柱
100
AcDbLine
 10
5410.618152625989
 20
3777.622502930906
 30
0.0
 11
5110.618152626081
 21
3777.62250293091
 31
0.0
  0
LINE
  5
80F5
330
1F
100
AcDbEntity
  8
柱
100
AcDbLine
 10
5225.618152626079
 20
3717.622502930908
 30
0.0
 11
5210.618152626079
 21
3717.622502930908
 31
0.0
  0
LINE
  5
80F6
330
1F
100
AcDbEntity
  8
柱
100
AcDbLine
 10
5210.618152626079
 20
3777.622502930905
 30
0.0
 11
5210.618152626079
 21
3737.622502930909
 31
0.0
  0
LINE
  5
80F7
330
1F
100
AcDbEntity
  8
柱
100
AcDbLine
 10
5225.618152626079
 20
3777.622502930905
 30
0.0
 11
5225.618152626079
 21
3737.622502930909
 31
0.0
  0
LINE
  5
810A
330
1F
100
AcDbEntity
  8
柱
100
AcDbLine
 10
5225.618152626076
 20
4093.247502930906
 30
0.0
 11
5290.376883117912
 21
4093.247502930904
 31
0.0
  0
LINE
  5
810B
330
1F
100
AcDbEntity
  8
柱
100
AcDbLine
 10
5198.118152625994
 20
4077.622502930909
 30
0.0
 11
5410.618152625993
 21
4077.622502930903
 31
0.0
  0
LINE
  5
810D
330
1F
100
AcDbEntity
  8
柱
100
AcDbLine
 10
5210.618152626076
 20
4208.247502930908
 30
0.0
 11
5210.618152626076
 21
4132.622502930908
 31
0.0
  0
LINE
  5
810E
330
1F
100
AcDbEntity
  8
柱
100
AcDbLine
 10
5225.618152626076
 20
4208.247502930908
 30
0.0
 11
5225.618152626076
 21
4132.622502930908
 31
0.0
  0
LINE
  5
810F
330
1F
100
AcDbEntity
  8
柱
100
AcDbLine
 10
5210.618152626076
 20
4117.622502930908
 30
0.0
 11
5210.618152626076
 21
4078.247502930904
 31
0.0
  0
LINE
  5
8111
330
1F
100
AcDbEntity
  8
柱
100
AcDbLine
 10
5225.618152626076
 20
4117.622502930908
 30
0.0
 11
5225.618152626076
 21
4078.247502930904
 31
0.0
  0
LINE
  5
8112
330
1F
100
AcDbEntity
  8
柱
100
AcDbLine
 10
5210.618152626079
 20
4208.247502930908
 30
0.0
 11
5225.618152626076
 21
4208.247502930908
 31
0.0
  0
LINE
  5
8113
330
1F
100
AcDbEntity
  8
CENTER
  6
CENTER
100
AcDbLine
 10
5238.118152626076
 20
4177.622502930907
 30
0.0
 11
5203.118152626072
 21
4177.622502930907
 31
0.0
  0
LINE
  5
8114
330
1F
100
AcDbEntity
  8
柱
100
AcDbLine
 10
5210.618152626079
 20
4138.247502930908
 30
0.0
 11
5225.618152626076
 21
4138.247502930908
 31
0.0
  0
LINE
  5
8116
330
1F
100
AcDbEntity
  8
部品
100
AcDbLine
 10
5123.118152625953
 20
4292.622502930909
 30
0.0
 11
5138.118152625949
 21
4292.622502930909
 31
0.0
  0
LINE
  5
8117
330
1F
100
AcDbEntity
  8
CENTER
  6
CENTER
100
AcDbLine
 10
5548.118152625994
 20
4224.737859256202
 30
0.0
 11
5548.118152625994
 21
3635.101626344517
 31
0.0
  0
TEXT
  5
8118
330
1F
100
AcDbEntity
  8
DIMS
100
AcDbText
 10
6168.278392848526
 20
3555.088004745308
 30
0.0
 40
50.0
  1
995
  7
ｽﾀｲﾙ1
100
AcDbText
  0
LINE
  5
8119
330
1F
100
AcDbEntity
  8
メッシュ
100
AcDbLine
 10
5635.61815262599
 20
3827.622502930901
 30
0.0
 11
6388.224560746075
 21
3827.622502930888
 31
0.0
  0
LINE
  5
811A
330
1F
100
AcDbEntity
  8
メッシュ
100
AcDbLine
 10
6165.618152625993
 20
3850.122502930891
 30
0.0
 11
6319.61815262599
 21
3850.122502930889
 31
0.0
  0
LINE
  5
811B
330
1F
100
AcDbEntity
  8
柱
100
AcDbLine
 10
6165.618152625993
 20
4027.622502930892
 30
0.0
 11
6388.224560746075
 21
4027.622502930888
 31
0.0
  0
LINE
  5
811C
330
1F
100
AcDbEntity
  8
メッシュ
100
AcDbLine
 10
6165.61815262599
 20
3850.122502930892
 30
0.0
 11
6388.224560746075
 21
3850.122502930889
 31
0.0
  0
LINE
  5
811D
330
1F
100
AcDbEntity
  8
メッシュ
100
AcDbLine
 10
5635.61815262599
 20
3850.12250293083
 30
0.0
 11
6055.61815262599
 21
3850.122502930894
 31
0.0
  0
LINE
  5
811E
330
1F
100
AcDbEntity
  8
メッシュ
100
AcDbLine
 10
5635.61815262599
 20
3850.122502930903
 30
0.0
 11
6055.61815262599
 21
3850.122502930894
 31
0.0
  0
LINE
  5
811F
330
1F
100
AcDbEntity
  8
メッシュ
100
AcDbLine
 10
5635.61815262599
 20
3850.122502930929
 30
0.0
 11
6029.618152625993
 21
3850.122502930894
 31
0.0
  0
LINE
  5
8120
330
1F
100
AcDbEntity
  8
柱
100
AcDbLine
 10
5648.118152625993
 20
4027.622502930903
 30
0.0
 11
6055.618152625993
 21
4027.622502930894
 31
0.0
  0
LINE
  5
8121
330
1F
100
AcDbEntity
  8
柱
100
AcDbLine
 10
5789.618152625994
 20
4027.622502930897
 30
0.0
 11
6029.618152625993
 21
4027.622502930895
 31
0.0
  0
LINE
  5
8122
330
1F
100
AcDbEntity
  8
部品
100
AcDbLine
 10
5604.618152625993
 20
4021.622502930902
 30
0.0
 11
5604.61815262599
 21
3833.622502930904
 31
0.0
  0
LINE
  5
8123
330
1F
100
AcDbEntity
  8
部品
100
AcDbLine
 10
5648.118152625993
 20
4027.622502930899
 30
0.0
 11
5648.11815262599
 21
3850.122502930901
 31
0.0
  0
LINE
  5
8124
330
1F
100
AcDbEntity
  8
部品
100
AcDbLine
 10
5610.618152625994
 20
4042.622502930901
 30
0.0
 11
5610.618152625989
 21
3812.622502930903
 31
0.0
  0
LINE
  5
8125
330
1F
100
AcDbEntity
  8
柱
100
AcDbLine
 10
5578.118152625993
 20
4021.622502930902
 30
0.0
 11
5578.118152625993
 21
3833.622502930904
 31
0.0
  0
LINE
  5
8126
330
1F
100
AcDbEntity
  8
柱
100
AcDbLine
 10
5518.118152625993
 20
4021.622502930902
 30
0.0
 11
5518.118152625993
 21
3833.622502930904
 31
0.0
  0
LINE
  5
8127
330
1F
100
AcDbEntity
  8
メッシュ
100
AcDbLine
 10
5635.61815262599
 20
3850.122502930901
 30
0.0
 11
5769.61815262599
 21
3850.122502930899
 31
0.0
  0
ARC
  5
8128
330
1F
100
AcDbEntity
  8
部品
100
AcDbCircle
 10
5548.118152625994
 20
3746.48061103901
 30
0.0
 40
42.35810810810696
100
AcDbArc
 50
214.2806986094792
 51
325.71930139051
  0
LINE
  5
812B
330
1F
100
AcDbEntity
  8
メッシュ
100
AcDbLine
 10
5635.61815262599
 20
3827.6225029309
 30
0.0
 11
5635.61815262599
 21
3850.122502930901
 31
0.0
  0
LINE
  5
812C
330
1F
100
AcDbEntity
  8
メッシュ
100
AcDbLine
 10
5635.61815262599
 20
3827.6225029309
 30
0.0
 11
5648.11815262599
 21
3827.6225029309
 31
0.0
  0
LINE
  5
812D
330
1F
100
AcDbEntity
  8
柱
100
AcDbLine
 10
5610.618152625989
 20
3840.122502930901
 30
0.0
 11
5635.618152625994
 21
3840.122502930901
 31
0.0
  0
LINE
  5
812E
330
1F
100
AcDbEntity
  8
部品
100
AcDbLine
 10
5598.11815262595
 20
3722.622502930902
 30
0.0
 11
5598.11815262595
 21
3737.622502930902
 31
0.0
  0
CIRCLE
  5
812F
330
1F
100
AcDbEntity
  8
メッシュ
100
AcDbCircle
 10
5754.61815262599
 20
3816.372502930899
 30
0.0
 40
11.25
  0
ARC
  5
8130
330
1F
100
AcDbEntity
  8
部品
100
AcDbCircle
 10
5735.618152625994
 20
3927.6225029309
 30
0.0
 40
35.0
100
AcDbArc
 50
90.0
 51
346.2708673245894
  0
ARC
  5
8131
330
1F
100
AcDbEntity
  8
部品
100
AcDbCircle
 10
5735.618152625994
 20
3927.6225029309
 30
0.0
 40
35.0
100
AcDbArc
 50
13.72913267541057
 51
121.9089827352986
  0
LINE
  5
8132
330
1F
100
AcDbEntity
  8
柱
100
AcDbLine
 10
5710.506063614939
 20
3927.6225029309
 30
0.0
 11
5760.730241637048
 21
3927.622502930898
 31
0.0
  0
LINE
  5
8133
330
1F
100
AcDbEntity
  8
部品
100
AcDbLine
 10
5717.618152625989
 20
3932.622502930899
 30
0.0
 11
5717.618152625989
 21
3922.622502930899
 31
0.0
  0
ARC
  5
8134
330
1F
100
AcDbEntity
  8
部品
100
AcDbCircle
 10
5725.618152625994
 20
3937.6225029309
 30
0.0
 40
5.0
100
AcDbArc
 50
270.0
 51
0.0
  0
ARC
  5
8135
330
1F
100
AcDbEntity
  8
部品
100
AcDbCircle
 10
5745.618152625993
 20
3937.622502930898
 30
0.0
 40
5.0
100
AcDbArc
 50
180.0
 51
270.0
  0
LINE
  5
8136
330
1F
100
AcDbEntity
  8
部品
100
AcDbLine
 10
5753.618152625993
 20
3932.622502930899
 30
0.0
 11
5753.618152625993
 21
3922.622502930899
 31
0.0
  0
LINE
  5
8137
330
1F
100
AcDbEntity
  8
部品
100
AcDbLine
 10
5740.618152625994
 20
3909.622502930898
 30
0.0
 11
5730.618152625993
 21
3909.622502930898
 31
0.0
  0
LINE
  5
8138
330
1F
100
AcDbEntity
  8
部品
100
AcDbLine
 10
5725.618152625994
 20
3922.622502930899
 30
0.0
 11
5717.618152625989
 21
3922.622502930899
 31
0.0
  0
LINE
  5
8139
330
1F
100
AcDbEntity
  8
部品
100
AcDbLine
 10
5730.618152625993
 20
3917.6225029309
 30
0.0
 11
5730.618152625993
 21
3909.622502930898
 31
0.0
  0
LINE
  5
813A
330
1F
100
AcDbEntity
  8
部品
100
AcDbLine
 10
5740.618152625994
 20
3917.6225029309
 30
0.0
 11
5740.618152625994
 21
3909.622502930898
 31
0.0
  0
ARC
  5
813B
330
1F
100
AcDbEntity
  8
部品
100
AcDbCircle
 10
5725.618152625994
 20
3917.6225029309
 30
0.0
 40
5.0
100
AcDbArc
 50
0.0
 51
90.0
  0
ARC
  5
813C
330
1F
100
AcDbEntity
  8
部品
100
AcDbCircle
 10
5745.618152625993
 20
3917.622502930899
 30
0.0
 40
5.0
100
AcDbArc
 50
90.0
 51
180.0
  0
LINE
  5
813D
330
1F
100
AcDbEntity
  8
部品
100
AcDbLine
 10
5753.618152625993
 20
3922.622502930899
 30
0.0
 11
5745.618152625993
 21
3922.622502930899
 31
0.0
  0
LINE
  5
813E
330
1F
100
AcDbEntity
  8
部品
100
AcDbLine
 10
5740.618152625994
 20
3945.622502930899
 30
0.0
 11
5730.618152625993
 21
3945.622502930899
 31
0.0
  0
LINE
  5
813F
330
1F
100
AcDbEntity
  8
部品
100
AcDbLine
 10
5740.618152625994
 20
3945.622502930899
 30
0.0
 11
5740.618152625994
 21
3937.6225029309
 31
0.0
  0
LINE
  5
8140
330
1F
100
AcDbEntity
  8
部品
100
AcDbLine
 10
5730.618152625993
 20
3945.622502930899
 30
0.0
 11
5730.618152625993
 21
3937.6225029309
 31
0.0
  0
LINE
  5
8141
330
1F
100
AcDbEntity
  8
部品
100
AcDbLine
 10
5725.618152625994
 20
3932.622502930899
 30
0.0
 11
5717.618152625989
 21
3932.622502930899
 31
0.0
  0
LINE
  5
8142
330
1F
100
AcDbEntity
  8
部品
100
AcDbLine
 10
5753.618152625993
 20
3932.622502930899
 30
0.0
 11
5745.618152625993
 21
3932.622502930899
 31
0.0
  0
LINE
  5
8143
330
1F
100
AcDbEntity
  8
部品
100
AcDbLine
 10
5735.618152625994
 20
3950.122502930901
 30
0.0
 11
5735.618152625994
 21
3900.466216470519
 31
0.0
  0
LINE
  5
8144
330
1F
100
AcDbEntity
  8
部品
100
AcDbLine
 10
5735.618152625994
 20
3952.734591941953
 30
0.0
 11
5735.618152625994
 21
3902.510413919845
 31
0.0
  0
LINE
  5
8145
330
1F
100
AcDbEntity
  8
柱
100
AcDbLine
 10
5648.118152625993
 20
4027.6225029309
 30
0.0
 11
5769.618152625993
 21
4027.622502930898
 31
0.0
  0
ARC
  5
8146
330
1F
100
AcDbEntity
  8
部品
100
AcDbCircle
 10
5548.118152625994
 20
4108.764394822794
 30
0.0
 40
42.35810810810824
100
AcDbArc
 50
34.28069860949
 51
145.7193013904513
  0
LINE
  5
8149
330
1F
100
AcDbEntity
  8
柱
100
AcDbLine
 10
5610.618152625994
 20
4015.122502930903
 30
0.0
 11
5648.118152625993
 21
4015.122502930899
 31
0.0
  0
LINE
  5
814A
330
1F
100
AcDbEntity
  8
部品
100
AcDbLine
 10
5598.11815262595
 20
4117.622502930902
 30
0.0
 11
5598.11815262595
 21
4132.622502930902
 31
0.0
  0
LINE
  5
814B
330
1F
100
AcDbEntity
  8
部品
100
AcDbLine
 10
5598.11815262595
 20
4176.26827876426
 30
0.0
 11
5598.11815262595
 21
4176.26827876426
 31
0.0
  0
LINE
  5
814C
330
1F
100
AcDbEntity
  8
部品
100
AcDbLine
 10
6055.61815262599
 20
3817.622502930894
 30
0.0
 11
6055.618152625993
 21
4027.622502930894
 31
0.0
  0
LINE
  5
814D
330
1F
100
AcDbEntity
  8
部品
100
AcDbLine
 10
6165.618152625993
 20
4027.622502930893
 30
0.0
 11
6165.61815262599
 21
3817.622502930893
 31
0.0
  0
LINE
  5
814E
330
1F
100
AcDbEntity
  8
柱
100
AcDbLine
 10
6109.618152625993
 20
3974.445908643863
 30
0.0
 11
6109.61815262599
 21
3880.799097217922
 31
0.0
  0
CIRCLE
  5
814F
330
1F
100
AcDbEntity
  8
メッシュ
100
AcDbCircle
 10
6015.618152625989
 20
3816.372502930895
 30
0.0
 40
11.25
  0
LINE
  5
8150
330
1F
100
AcDbEntity
  8
部品
100
AcDbLine
 10
6004.61815262599
 20
3793.622502930895
 30
0.0
 11
6004.61815262599
 21
3794.622502930897
 31
0.0
  0
LINE
  5
8151
330
1F
100
AcDbEntity
  8
部品
100
AcDbLine
 10
6065.61815262599
 20
3817.622502930894
 30
0.0
 11
6065.61815262599
 21
3827.622502930894
 31
0.0
  0
LINE
  5
8152
330
1F
100
AcDbEntity
  8
部品
100
AcDbLine
 10
6055.61815262599
 20
3817.622502930894
 30
0.0
 11
6065.61815262599
 21
3817.622502930894
 31
0.0
  0
LINE
  5
8153
330
1F
100
AcDbEntity
  8
部品
100
AcDbLine
 10
6155.61815262599
 20
3817.622502930893
 30
0.0
 11
6165.61815262599
 21
3817.622502930893
 31
0.0
  0
LINE
  5
8154
330
1F
100
AcDbEntity
  8
部品
100
AcDbLine
 10
6155.61815262599
 20
3827.622502930893
 30
0.0
 11
6155.61815262599
 21
3817.622502930893
 31
0.0
  0
LINE
  5
8155
330
1F
100
AcDbEntity
  8
柱
100
AcDbLine
 10
6123.88967089263
 20
3927.622502930893
 30
0.0
 11
6087.366974145155
 21
3927.622502930893
 31
0.0
  0
LINE
  5
8156
330
1F
100
AcDbEntity
  8
部品
100
AcDbLine
 10
6155.34663435935
 20
3927.622502930891
 30
0.0
 11
6063.889670892629
 21
3927.622502930893
 31
0.0
  0
LINE
  5
8157
330
1F
100
AcDbEntity
  8
部品
100
AcDbLine
 10
6114.618152625993
 20
3909.622502930891
 30
0.0
 11
6104.618152625993
 21
3909.622502930891
 31
0.0
  0
LINE
  5
8158
330
1F
100
AcDbEntity
  8
部品
100
AcDbLine
 10
6114.618152625993
 20
3945.622502930891
 30
0.0
 11
6104.618152625993
 21
3945.622502930891
 31
0.0
  0
LINE
  5
8159
330
1F
100
AcDbEntity
  8
部品
100
AcDbLine
 10
6155.34663435935
 20
3927.622502930891
 30
0.0
 11
6063.889670892629
 21
3927.622502930893
 31
0.0
  0
CIRCLE
  5
815A
330
1F
100
AcDbEntity
  8
部品
100
AcDbCircle
 10
6109.618152625993
 20
3927.622502930893
 30
0.0
 40
35.0
  0
LINE
  5
815B
330
1F
100
AcDbEntity
  8
部品
100
AcDbLine
 10
6165.618152625993
 20
3877.622502930891
 30
0.0
 11
6055.61815262599
 21
3877.622502930894
 31
0.0
  0
LINE
  5
815C
330
1F
100
AcDbEntity
  8
部品
100
AcDbLine
 10
6104.618152625993
 20
3917.622502930893
 30
0.0
 11
6104.618152625993
 21
3909.622502930891
 31
0.0
  0
LINE
  5
815D
330
1F
100
AcDbEntity
  8
部品
100
AcDbLine
 10
6104.618152625993
 20
3945.622502930891
 30
0.0
 11
6104.618152625993
 21
3937.622502930892
 31
0.0
  0
LINE
  5
815E
330
1F
100
AcDbEntity
  8
部品
100
AcDbLine
 10
6099.618152625993
 20
3932.622502930892
 30
0.0
 11
6091.61815262599
 21
3932.622502930892
 31
0.0
  0
LINE
  5
815F
330
1F
100
AcDbEntity
  8
部品
100
AcDbLine
 10
6099.618152625993
 20
3922.622502930892
 30
0.0
 11
6091.61815262599
 21
3922.622502930892
 31
0.0
  0
ARC
  5
8160
330
1F
100
AcDbEntity
  8
部品
100
AcDbCircle
 10
6099.618152625993
 20
3917.622502930893
 30
0.0
 40
5.0
100
AcDbArc
 50
0.0
 51
90.0
  0
LINE
  5
8161
330
1F
100
AcDbEntity
  8
部品
100
AcDbLine
 10
6091.61815262599
 20
3932.622502930892
 30
0.0
 11
6091.61815262599
 21
3922.622502930892
 31
0.0
  0
ARC
  5
8162
330
1F
100
AcDbEntity
  8
部品
100
AcDbCircle
 10
6099.618152625993
 20
3937.622502930892
 30
0.0
 40
5.0
100
AcDbArc
 50
270.0
 51
0.0
  0
LINE
  5
8163
330
1F
100
AcDbEntity
  8
部品
100
AcDbLine
 10
6114.618152625993
 20
3917.622502930893
 30
0.0
 11
6114.618152625993
 21
3909.622502930891
 31
0.0
  0
LINE
  5
8164
330
1F
100
AcDbEntity
  8
部品
100
AcDbLine
 10
6114.618152625993
 20
3945.622502930891
 30
0.0
 11
6114.618152625993
 21
3937.622502930892
 31
0.0
  0
LINE
  5
8165
330
1F
100
AcDbEntity
  8
部品
100
AcDbLine
 10
6127.618152625993
 20
3932.622502930892
 30
0.0
 11
6119.618152625993
 21
3932.622502930892
 31
0.0
  0
ARC
  5
8166
330
1F
100
AcDbEntity
  8
部品
100
AcDbCircle
 10
6119.618152625993
 20
3917.622502930893
 30
0.0
 40
5.0
100
AcDbArc
 50
90.0
 51
180.0
  0
LINE
  5
8167
330
1F
100
AcDbEntity
  8
部品
100
AcDbLine
 10
6127.618152625993
 20
3922.622502930892
 30
0.0
 11
6119.618152625993
 21
3922.622502930892
 31
0.0
  0
ARC
  5
8168
330
1F
100
AcDbEntity
  8
部品
100
AcDbCircle
 10
6119.618152625993
 20
3937.622502930892
 30
0.0
 40
5.0
100
AcDbArc
 50
180.0
 51
270.0
  0
LINE
  5
8169
330
1F
100
AcDbEntity
  8
部品
100
AcDbLine
 10
6127.618152625993
 20
3932.622502930893
 30
0.0
 11
6127.618152625993
 21
3922.622502930892
 31
0.0
  0
LINE
  5
816A
330
1F
100
AcDbEntity
  8
部品
100
AcDbLine
 10
6109.618152625993
 20
3950.122502930894
 30
0.0
 11
6109.618152625993
 21
3900.466216470512
 31
0.0
  0
LINE
  5
816B
330
1F
100
AcDbEntity
  8
柱
100
AcDbLine
 10
6055.618152625993
 20
3977.622502930894
 30
0.0
 11
6165.618152625993
 21
3977.622502930893
 31
0.0
  0
LINE
  5
816C
330
1F
100
AcDbEntity
  8
柱
100
AcDbLine
 10
6065.618152625994
 20
4042.622502930893
 30
0.0
 11
6155.618152625994
 21
4042.622502930893
 31
0.0
  0
ARC
  5
816D
330
1F
100
AcDbEntity
  8
部品
100
AcDbCircle
 10
6065.618152625994
 20
4032.622502930893
 30
0.0
 40
10.0
100
AcDbArc
 50
90.0
 51
180.0
  0
LINE
  5
816E
330
1F
100
AcDbEntity
  8
部品
100
AcDbLine
 10
6055.618152625993
 20
4027.622502930894
 30
0.0
 11
6055.618152625993
 21
4032.622502930892
 31
0.0
  0
ARC
  5
816F
330
1F
100
AcDbEntity
  8
部品
100
AcDbCircle
 10
6155.618152625994
 20
4032.622502930893
 30
0.0
 40
10.0
100
AcDbArc
 50
0.0
 51
90.0
  0
LINE
  5
8170
330
1F
100
AcDbEntity
  8
部品
100
AcDbLine
 10
6165.618152625993
 20
4027.622502930892
 30
0.0
 11
6165.618152625993
 21
4032.622502930893
 31
0.0
  0
CIRCLE
  5
8171
330
1F
100
AcDbEntity
  8
メッシュ
100
AcDbCircle
 10
6276.61815262599
 20
3816.372502930889
 30
0.0
 40
11.25
  0
LINE
  5
833A
330
1F
100
AcDbEntity
  8
柱
100
AcDbLine
 10
5110.618152626048
 20
2201.590454547795
 30
0.0
 11
5110.618152626081
 21
3172.983715141129
 31
0.0
  0
LINE
  5
833B
330
1F
100
AcDbEntity
  8
部品
100
AcDbLine
 10
5110.618152626056
 20
2389.840454547792
 30
0.0
 11
5110.618152626031
 21
1756.124177249171
 31
0.0
  0
LINE
  5
833D
330
1F
100
AcDbEntity
  8
CENTER
100
AcDbLine
 10
5260.61815262608
 20
3172.983715141124
 30
0.0
 11
5260.61815262608
 21
1756.124177249171
 31
0.0
  0
LINE
  5
833F
330
1F
100
AcDbEntity
  8
部品
100
AcDbLine
 10
5210.61815262608
 20
2389.840454547781
 30
0.0
 11
5123.118152625949
 21
2389.840454547781
 31
0.0
  0
LINE
  5
8340
330
1F
100
AcDbEntity
  8
柱
100
AcDbLine
 10
5110.618152626082
 20
3777.62250293091
 30
0.0
 11
5110.618152626081
 21
4077.62250293091
 31
0.0
  0
LINE
  5
8341
330
1F
100
AcDbEntity
  8
DIMS
100
AcDbLine
 10
5110.618152626082
 20
3777.62250293091
 30
0.0
 11
5110.618152626082
 21
3515.857074447458
 31
0.0
  0
LINE
  5
8342
330
1F
100
AcDbEntity
  8
DIMS
100
AcDbLine
 10
5405.618152626001
 20
3536.680239985398
 30
0.0
 11
5110.618152626082
 21
3536.680239985398
 31
0.0
  0
CIRCLE
  5
8343
330
1F
100
AcDbEntity
  8
DIMS
100
AcDbCircle
 10
5110.618152626081
 20
3536.680239985398
 30
0.0
 40
5.0
  0
LINE
  5
8345
330
1F
100
AcDbEntity
  8
CENTER
100
AcDbLine
 10
5260.61815262608
 20
3715.490468574941
 30
0.0
 11
5260.61815262608
 21
4139.754537286872
 31
0.0
  0
LINE
  5
8349
330
1F
100
AcDbEntity
  8
CENTER
100
AcDbLine
 10
5048.486118270115
 20
3927.62250293091
 30
0.0
 11
6391.86965181533
 21
3927.62250293091
 31
0.0
  0
LINE
  5
8358
330
1F
100
AcDbEntity
  8
柱
100
AcDbLine
 10
1316.216522887531
 20
3218.307044732001
 30
0.0
 11
1308.636243147753
 21
3218.307044732001
 31
0.0
  0
LINE
  5
8359
330
1F
100
AcDbEntity
  8
部品
100
AcDbLine
 10
1326.716522887531
 20
3245.307044732002
 30
0.0
 11
1329.716522887532
 21
3245.307044732002
 31
0.0
  0
LINE
  5
835A
330
1F
100
AcDbEntity
  8
柱
100
AcDbLine
 10
1366.716522887531
 20
3218.307044732001
 30
0.0
 11
1366.716522887531
 21
2441.73913943084
 31
0.0
  0
LINE
  5
835B
330
1F
100
AcDbEntity
  8
柱
100
AcDbLine
 10
1366.716522887532
 20
3218.307044732
 30
0.0
 11
1366.716522887531
 21
2091.73913943084
 31
0.0
  0
LINE
  5
835C
330
1F
100
AcDbEntity
  8
柱
100
AcDbLine
 10
1381.716522887532
 20
3218.307044732001
 30
0.0
 11
1381.716522887532
 21
2441.73913943084
 31
0.0
  0
TEXT
  5
835E
330
1F
100
AcDbEntity
  8
DIMS
100
AcDbText
 10
5222.737352075088
 20
3552.00412165558
 30
0.0
 40
50.0
  1
60
  7
ｽﾀｲﾙ1
100
AcDbText
  0
DIMENSION
  5
83B3
330
1F
100
AcDbEntity
  8
DIMS
100
AcDbDimension
  2
*D2
 10
2426.716522887532
 20
5198.635626830355
 30
0.0
 11
1861.346342827612
 21
5198.635626830355
 31
0.0
 70
   160
 71
     5
 42
1090.0
  3
STANDARD
100
AcDbAlignedDimension
 13
1336.716522887531
 23
4622.069155343019
 33
0.0
 14
2426.716522887532
 24
4622.069155343019
 34
0.0
100
AcDbRotatedDimension
1001
ACAD
1000
DSTYLE
1002
{
1070
    40
1040
20.0
1002
}
  0
DIMENSION
  5
83EF
330
1F
100
AcDbEntity
  8
DIMS
100
AcDbDimension
  2
*D3
 10
1366.716522887531
 20
5049.621207263326
 30
0.0
 11
1580.390585784386
 21
5049.621207263326
 31
0.0
 70
   160
 71
     5
 42
59.99999999999977
  3
STANDARD
100
AcDbAlignedDimension
 13
1306.716522887532
 23
4622.069155343019
 33
0.0
 14
1366.716522887531
 24
4622.069155343019
 34
0.0
100
AcDbRotatedDimension
1001
ACAD
1000
DSTYLE
1002
{
1070
    40
1040
20.0
1002
}
  0
DIMENSION
  5
841D
330
1F
100
AcDbEntity
  8
DIMS
100
AcDbDimension
  2
*D4
 10
2396.716522887532
 20
5048.188387823928
 30
0.0
 11
2206.216522887533
 21
5101.188387823928
 31
0.0
 70
    32
 71
     5
 42
59.99999999999954
  3
STANDARD
100
AcDbAlignedDimension
 13
2456.716522887532
 23
4622.069155343019
 33
0.0
 14
2396.716522887532
 24
4622.069155343019
 34
0.0
100
AcDbRotatedDimension
1001
ACAD
1000
DSTYLE
1002
{
1070
    40
1040
20.0
1002
}
  0
DIMENSION
  5
842C
330
1F
100
AcDbEntity
  8
DIMS
100
AcDbDimension
  2
*D5
 10
1381.716522887531
 20
4896.308303617463
 30
0.0
 11
1182.049856220865
 21
4896.308303617463
 31
0.0
 70
   160
 71
     5
 42
14.99999999999977
  3
STANDARD
100
AcDbAlignedDimension
 13
1366.716522887531
 23
4622.069155343019
 33
0.0
 14
1381.716522887531
 24
4612.069155343019
 34
0.0
100
AcDbRotatedDimension
1001
ACAD
1000
DSTYLE
1002
{
1070
    40
1040
20.0
1002
}
  0
DIMENSION
  5
843B
330
1F
100
AcDbEntity
  8
DIMS
100
AcDbDimension
  2
*D6
 10
2376.716522887532
 20
4896.308303617463
 30
0.0
 11
1879.216522887531
 21
4949.308303617463
 31
0.0
 70
    32
 71
     5
 42
995.0000000000004
  3
STANDARD
100
AcDbAlignedDimension
 13
1381.716522887531
 23
4612.069155343019
 33
0.0
 14
2376.716522887532
 24
4612.069155343019
 34
0.0
100
AcDbRotatedDimension
1001
ACAD
1000
DSTYLE
1002
{
1070
   279
1070
     1
1070
    40
1040
20.0
1002
}
  0
DIMENSION
  5
8448
330
1F
100
AcDbEntity
  8
DIMS
100
AcDbDimension
  2
*D7
 10
2396.716522887532
 20
4896.308303617463
 30
0.0
 11
2500.66399667033
 21
4896.308303617463
 31
0.0
 70
   160
 71
     5
 42
20.00000000000046
  3
STANDARD
100
AcDbAlignedDimension
 13
2376.716522887532
 23
4612.069155343019
 33
0.0
 14
2396.716522887532
 24
4622.069155343019
 34
0.0
100
AcDbRotatedDimension
1001
ACAD
1000
DSTYLE
1002
{
1070
   279
1070
     1
1070
    40
1040
20.0
1002
}
  0
LINE
  5
8470
330
1F
100
AcDbEntity
  8
柱
100
AcDbLine
 10
1406.71652288753
 20
4615.069155343018
 30
0.0
 11
1381.716522887532
 21
4615.069155343018
 31
0.0
  0
LINE
  5
8471
330
1F
100
AcDbEntity
  8
柱
100
AcDbLine
 10
1406.716522887532
 20
4569.06915534302
 30
0.0
 11
1381.71652288753
 21
4569.069155343019
 31
0.0
  0
LINE
  5
8475
330
1F
100
AcDbEntity
  8
部品
100
AcDbLine
 10
1366.716522887531
 20
4622.069155343019
 30
0.0
 11
1366.716522887533
 21
4562.06915534302
 31
0.0
  0
CIRCLE
  5
8482
330
1F
100
AcDbEntity
  8
CENTER
100
AcDbCircle
 10
1393.636243147753
 20
3238.307044732001
 30
0.0
 40
87.32124598286469
  0
LINE
  5
8483
330
1F
100
AcDbEntity
  8
CENTER
100
AcDbLine
 10
1295.109005813257
 20
4592.069155343018
 30
0.0
 11
1394.134382484044
 21
4592.069155343018
 31
0.0
  0
LINE
  5
8485
330
1F
100
AcDbEntity
  8
柱
100
AcDbLine
 10
1379.71652288753
 20
4623.069155343019
 30
0.0
 11
1379.71652288753
 21
4580.069155343019
 31
0.0
  0
LINE
  5
8486
330
1F
100
AcDbEntity
  8
部品
100
AcDbLine
 10
1379.71652288753
 20
4580.069155343019
 30
0.0
 11
1381.71652288753
 21
4580.069155343019
 31
0.0
  0
LINE
  5
8488
330
1F
100
AcDbEntity
  8
部品
100
AcDbLine
 10
1344.71652288753
 20
4625.069155343019
 30
0.0
 11
1381.71652288753
 21
4625.069155343019
 31
0.0
  0
LINE
  5
8489
330
1F
100
AcDbEntity
  8
部品
100
AcDbLine
 10
1344.71652288753
 20
4623.069155343019
 30
0.0
 11
1379.71652288753
 21
4623.069155343019
 31
0.0
  0
LINE
  5
848A
330
1F
100
AcDbEntity
  8
柱
100
AcDbLine
 10
1344.71652288753
 20
4625.069155343019
 30
0.0
 11
1344.71652288753
 21
4623.06915534302
 31
0.0
  0
LINE
  5
849A
330
1F
100
AcDbEntity
  8
柱
100
AcDbLine
 10
1379.716522887531
 20
3334.239139430842
 30
0.0
 11
1379.716522887531
 21
3294.239139430838
 31
0.0
  0
CIRCLE
  5
849F
330
1F
100
AcDbEntity
  8
破線
100
AcDbCircle
 10
5260.61815262608
 20
2564.840454547789
 30
0.0
 40
25.0
  0
CIRCLE
  5
84A0
330
1F
100
AcDbEntity
  8
破線
100
AcDbCircle
 10
5260.61815262608
 20
2414.840454547789
 30
0.0
 40
25.0
  0
ARC
  5
84A1
330
1F
100
AcDbEntity
  8
破線
100
AcDbCircle
 10
5548.118152625986
 20
2414.840454547779
 30
0.0
 40
25.0
100
AcDbArc
 50
17.58795377406848
 51
229.7921812779291
  0
ARC
  5
84A2
330
1F
100
AcDbEntity
  8
破線
100
AcDbCircle
 10
5548.118152625994
 20
2564.840454547779
 30
0.0
 40
25.0
100
AcDbArc
 50
130.2078187220679
 51
342.4120462259249
  0
LINE
  5
84AD
330
1F
100
AcDbEntity
  8
柱
100
AcDbLine
 10
5513.118152625994
 20
4117.622502930904
 30
0.0
 11
5513.118152625992
 21
4042.622502930902
 31
0.0
  0
LINE
  5
84AE
330
1F
100
AcDbEntity
  8
柱
100
AcDbLine
 10
5583.118152625993
 20
4117.622502930902
 30
0.0
 11
5583.118152625992
 21
4042.622502930901
 31
0.0
  0
LINE
  5
84AF
330
1F
100
AcDbEntity
  8
柱
100
AcDbLine
 10
5513.118152625994
 20
3812.622502930905
 30
0.0
 11
5513.118152625994
 21
3737.622502930904
 31
0.0
  0
LINE
  5
84B0
330
1F
100
AcDbEntity
  8
柱
100
AcDbLine
 10
5583.118152625993
 20
3812.622502930903
 30
0.0
 11
5583.118152625993
 21
3737.622502930904
 31
0.0
  0
LINE
  5
84BD
330
1F
100
AcDbEntity
  8
部品
100
AcDbLine
 10
5225.618152626082
 20
2589.840454547781
 30
0.0
 11
5225.618152626083
 21
2639.840454547789
 31
0.0
  0
LINE
  5
84BE
330
1F
100
AcDbEntity
  8
部品
100
AcDbLine
 10
5210.61815262608
 20
2389.840454547781
 30
0.0
 11
5185.618152626062
 21
2389.840454547781
 31
0.0
  0
LINE
  5
84C1
330
1F
100
AcDbEntity
  8
部品
100
AcDbLine
 10
5290.376883117914
 20
3762.622502930906
 30
0.0
 11
5290.376883117912
 21
3777.622502930908
 31
0.0
  0
LINE
  5
84C2
330
1F
100
AcDbEntity
  8
部品
100
AcDbLine
 10
5290.376883117912
 20
4077.622502930906
 30
0.0
 11
5290.376883117912
 21
4093.247502930905
 31
0.0
  0
LINE
  5
84C5
330
1F
100
AcDbEntity
  8
柱
100
AcDbLine
 10
1326.716522887531
 20
3218.307044732001
 30
0.0
 11
1311.636243147753
 21
3218.307044732001
 31
0.0
  0
LINE
  5
84C6
330
1F
100
AcDbEntity
  8
CENTER
100
AcDbLine
 10
1336.716522887531
 20
4547.907014287111
 30
0.0
 11
1336.716522887531
 21
4636.231296398926
 31
0.0
  0
LINE
  5
84C9
330
1F
100
AcDbEntity
  8
部品
100
AcDbLine
 10
1342.716522887531
 20
4559.069155343018
 30
0.0
 11
1342.716522887531
 21
4562.06915534302
 31
0.0
  0
LINE
  5
84CA
330
1F
100
AcDbEntity
  8
部品
100
AcDbLine
 10
1342.716522887531
 20
4622.069155343018
 30
0.0
 11
1342.716522887531
 21
4625.06915534302
 31
0.0
  0
LINE
  5
84D4
330
1F
100
AcDbEntity
  8
柱
100
AcDbLine
 10
5122.118152626081
 20
3789.12250293091
 30
0.0
 11
5122.118152626081
 21
4066.122502930909
 31
0.0
  0
LINE
  5
84D5
330
1F
100
AcDbEntity
  8
柱
100
AcDbLine
 10
5248.118152625994
 20
4066.122502930906
 30
0.0
 11
5122.118152626081
 21
4066.122502930908
 31
0.0
  0
LINE
  5
84D6
330
1F
100
AcDbEntity
  8
柱
100
AcDbLine
 10
5198.118152625994
 20
4066.122502930908
 30
0.0
 11
5399.118152625994
 21
4066.122502930904
 31
0.0
  0
LINE
  5
84D7
330
1F
100
AcDbEntity
  8
部品
100
AcDbLine
 10
5399.118152625994
 20
4066.122502930904
 30
0.0
 11
5399.118152625988
 21
3789.122502930906
 31
0.0
  0
LINE
  5
84D8
330
1F
100
AcDbEntity
  8
柱
100
AcDbLine
 10
5399.118152625987
 20
3789.122502930906
 30
0.0
 11
5122.118152626081
 21
3789.12250293091
 31
0.0
  0
LINE
  5
84EB
330
1F
100
AcDbEntity
  8
メッシュ
100
AcDbLine
 10
1411.716522887531
 20
3158.33913943084
 30
0.0
 11
2346.716522887532
 21
3158.33913943084
 31
0.0
  0
LINE
  5
84EC
330
1F
100
AcDbEntity
  8
メッシュ
100
AcDbLine
 10
1411.716522887531
 20
3035.339139430841
 30
0.0
 11
2346.716522887532
 21
3035.339139430841
 31
0.0
  0
LINE
  5
84ED
330
1F
100
AcDbEntity
  8
メッシュ
100
AcDbLine
 10
1411.716522887531
 20
2912.33913943084
 30
0.0
 11
2346.716522887532
 21
2912.33913943084
 31
0.0
  0
LINE
  5
84EE
330
1F
100
AcDbEntity
  8
メッシュ
100
AcDbLine
 10
1411.716522887531
 20
2789.33913943084
 30
0.0
 11
2346.716522887532
 21
2789.33913943084
 31
0.0
  0
LINE
  5
84EF
330
1F
100
AcDbEntity
  8
メッシュ
100
AcDbLine
 10
1411.716522887531
 20
2912.33913943084
 30
0.0
 11
2346.716522887532
 21
2912.33913943084
 31
0.0
  0
LINE
  5
84F0
330
1F
100
AcDbEntity
  8
メッシュ
100
AcDbLine
 10
1411.716522887531
 20
2666.33913943084
 30
0.0
 11
2346.716522887532
 21
2666.33913943084
 31
0.0
  0
LINE
  5
84F1
330
1F
100
AcDbEntity
  8
メッシュ
100
AcDbLine
 10
1411.716522887531
 20
2543.33913943084
 30
0.0
 11
2346.716522887532
 21
2543.33913943084
 31
0.0
  0
LINE
  5
84F2
330
1F
100
AcDbEntity
  8
メッシュ
100
AcDbLine
 10
1411.716522887531
 20
2495.33913943084
 30
0.0
 11
2346.716522887532
 21
2495.33913943084
 31
0.0
  0
TEXT
  5
850C
330
1F
100
AcDbEntity
  8
DIMS
100
AcDbText
 10
1201.418333331541
 20
291.5232848709329
 30
0.0
 40
50.0
  1
□60X60X3.2
  7
ｽﾀｲﾙ1
100
AcDbText
  0
TEXT
  5
9870
330
1F
100
AcDbEntity
  8
DIMS
100
AcDbText
 10
3159.618214297982
 20
1087.711462412457
 30
0.0
 40
50.0
  1
打掛け
  7
ｽﾀｲﾙ1
100
AcDbText
  0
TEXT
  5
9872
330
1F
100
AcDbEntity
  8
DIMS
100
AcDbText
 10
3159.18830691249
 20
885.6373010620481
 30
0.0
 40
50.0
  1
ガイド
  7
ｽﾀｲﾙ1
100
AcDbText
  0
TEXT
  5
9873
330
1F
100
AcDbEntity
  8
DIMS
100
AcDbText
 10
3162.134734318306
 20
787.5832382117114
 30
0.0
 40
50.0
  1
軸
  7
ｽﾀｲﾙ1
100
AcDbText
  0
TEXT
  5
9874
330
1F
100
AcDbEntity
  8
DIMS
100
AcDbText
 10
3161.152585231493
 20
586.2565291018472
 30
0.0
 40
50.0
  1
打掛受け
  7
ｽﾀｲﾙ1
100
AcDbText
  0
TEXT
  5
9875
330
1F
100
AcDbEntity
  8
DIMS
100
AcDbText
 10
3161.603112987487
 20
685.6262886607601
 30
0.0
 40
50.0
  1
小ネジトラス
  7
ｽﾀｲﾙ1
100
AcDbText
  0
TEXT
  5
9876
330
1F
100
AcDbEntity
  8
DIMS
100
AcDbText
 10
3160.685907409207
 20
485.7922666064187
 30
0.0
 40
50.0
  1
平3種
  7
ｽﾀｲﾙ1
100
AcDbText
  0
TEXT
  5
9877
330
1F
100
AcDbEntity
  8
DIMS
100
AcDbText
 10
3158.767109424215
 20
387.8945520500529
 30
0.0
 40
50.0
  1
戸当り
  7
ｽﾀｲﾙ1
100
AcDbText
  0
LINE
  5
9878
330
1F
100
AcDbEntity
  8
DIMS
100
AcDbLine
 10
3038.775546135527
 20
1159.731826641227
 30
0.0
 11
3638.775546135526
 21
1159.731826641227
 31
0.0
  0
LINE
  5
9879
330
1F
100
AcDbEntity
  8
DIMS
100
AcDbLine
 10
3038.775546135527
 20
1059.731826641227
 30
0.0
 11
3638.775546135526
 21
1059.731826641227
 31
0.0
  0
LINE
  5
987A
330
1F
100
AcDbEntity
  8
DIMS
100
AcDbLine
 10
3038.775546135527
 20
959.7318266412276
 30
0.0
 11
3638.775546135526
 21
959.7318266412276
 31
0.0
  0
LINE
  5
987B
330
1F
100
AcDbEntity
  8
DIMS
100
AcDbLine
 10
3038.775546135527
 20
859.7318266412276
 30
0.0
 11
3638.775546135526
 21
859.7318266412276
 31
0.0
  0
LINE
  5
987C
330
1F
100
AcDbEntity
  8
DIMS
100
AcDbLine
 10
3038.775546135527
 20
759.7318266412275
 30
0.0
 11
3638.775546135526
 21
759.7318266412275
 31
0.0
  0
LINE
  5
987D
330
1F
100
AcDbEntity
  8
DIMS
100
AcDbLine
 10
3038.775546135527
 20
659.7318266412275
 30
0.0
 11
3638.775546135526
 21
659.7318266412275
 31
0.0
  0
LINE
  5
987E
330
1F
100
AcDbEntity
  8
DIMS
100
AcDbLine
 10
3038.775546135527
 20
559.7318266412275
 30
0.0
 11
3638.775546135526
 21
559.7318266412275
 31
0.0
  0
LINE
  5
987F
330
1F
100
AcDbEntity
  8
DIMS
100
AcDbLine
 10
3038.775546135527
 20
459.7318266412275
 30
0.0
 11
3638.775546135526
 21
459.7318266412275
 31
0.0
  0
LINE
  5
9880
330
1F
100
AcDbEntity
  8
DIMS
100
AcDbLine
 10
3038.775546135527
 20
359.7318266412276
 30
0.0
 11
3638.775546135526
 21
359.7318266412276
 31
0.0
  0
LINE
  5
9881
330
1F
100
AcDbEntity
  8
DIMS
100
AcDbLine
 10
3038.775546135527
 20
1159.731826641227
 30
0.0
 11
3038.775546135527
 21
359.7318266412276
 31
0.0
  0
LINE
  5
9882
330
1F
100
AcDbEntity
  8
DIMS
100
AcDbLine
 10
3138.775546135527
 20
1159.731826641227
 30
0.0
 11
3138.775546135527
 21
359.7318266412276
 31
0.0
  0
LINE
  5
9883
330
1F
100
AcDbEntity
  8
DIMS
100
AcDbLine
 10
3638.775546135526
 20
1159.731826641227
 30
0.0
 11
3638.775546135526
 21
359.7318266412276
 31
0.0
  0
TEXT
  5
9884
330
1F
100
AcDbEntity
  8
DIMS
100
AcDbText
 10
3063.055979375386
 20
488.3578788941868
 30
0.0
 40
50.0
  1
⑦
  7
ｽﾀｲﾙ1
100
AcDbText
  0
TEXT
  5
9885
330
1F
100
AcDbEntity
  8
DIMS
100
AcDbText
 10
3062.413456168113
 20
388.1381732262471
 30
0.0
 40
50.0
  1
⑧
  7
ｽﾀｲﾙ1
100
AcDbText
  0
TEXT
  5
9886
330
1F
100
AcDbEntity
  8
DIMS
100
AcDbText
 10
3062.845346417169
 20
788.3310640681775
 30
0.0
 40
50.0
  1
④
  7
ｽﾀｲﾙ1
100
AcDbText
  0
TEXT
  5
9887
330
1F
100
AcDbEntity
  8
DIMS
100
AcDbText
 10
3062.677309487328
 20
688.5072783516807
 30
0.0
 40
50.0
  1
⑤
  7
ｽﾀｲﾙ1
100
AcDbText
  0
TEXT
  5
9888
330
1F
100
AcDbEntity
  8
DIMS
100
AcDbText
 10
3062.899735813768
 20
588.3362559652523
 30
0.0
 40
50.0
  1
⑥
  7
ｽﾀｲﾙ1
100
AcDbText
  0
TEXT
  5
9889
330
1F
100
AcDbEntity
  8
DIMS
100
AcDbText
 10
3063.114577085547
 20
1087.660597364205
 30
0.0
 40
50.0
  1
①
  7
ｽﾀｲﾙ1
100
AcDbText
  0
TEXT
  5
988A
330
1F
100
AcDbEntity
  8
DIMS
100
AcDbText
 10
3062.880144406077
 20
988.1060271498354
 30
0.0
 40
50.0
  1
②
  7
ｽﾀｲﾙ1
100
AcDbText
  0
TEXT
  5
988B
330
1F
100
AcDbEntity
  8
DIMS
100
AcDbText
 10
3062.930861453591
 20
888.0961285834819
 30
0.0
 40
50.0
  1
③
  7
ｽﾀｲﾙ1
100
AcDbText
  0
TEXT
  5
988C
330
1F
100
AcDbEntity
  8
DIMS
100
AcDbText
 10
5571.597332106097
 20
1613.528323781651
 30
0.0
 40
50.0
  1
⑤
  7
ｽﾀｲﾙ1
100
AcDbText
  0
TEXT
  5
988D
330
1F
100
AcDbEntity
  8
DIMS
100
AcDbText
 10
4797.149701980957
 20
1588.457165398757
 30
0.0
 40
50.0
  1
⑥
  7
ｽﾀｲﾙ1
100
AcDbText
  0
TEXT
  5
988E
330
1F
100
AcDbEntity
  8
DIMS
100
AcDbText
 10
5436.641568729962
 20
1597.347871977214
 30
0.0
 40
50.0
  1
②
  7
ｽﾀｲﾙ1
100
AcDbText
  0
TEXT
  5
988F
330
1F
100
AcDbEntity
  8
DIMS
100
AcDbText
 10
5036.624261024472
 20
1640.715404052127
 30
0.0
 40
50.0
  1
①
  7
ｽﾀｲﾙ1
100
AcDbText
  0
LEADER
  5
9890
330
1F
100
AcDbEntity
  8
DIMS
100
AcDbLeader
  3
ISO-25
 76
     2
 10
5379.914403309507
 20
2446.96042047003
 30
0.0
 10
5069.364595154877
 20
1695.718523074154
 30
0.0
1001
ACAD
1000
DSTYLE
1002
{
1070
   147
1040
0.625
1070
    77
1070
     0
1002
}
  0
LEADER
  5
9891
330
1F
100
AcDbEntity
  8
DIMS
100
AcDbLeader
  3
ISO-25
 76
     2
 10
5553.118152625994
 20
2479.84045454778
 30
0.0
 10
5602.632584630542
 20
1667.792923920781
 30
0.0
1001
ACAD
1000
DSTYLE
1002
{
1070
   147
1040
0.625
1070
    77
1070
     0
1002
}
  0
LEADER
  5
9892
330
1F
100
AcDbEntity
  8
DIMS
100
AcDbLeader
  3
ISO-25
 76
     2
 10
5210.61815262608
 20
2339.840454547792
 30
0.0
 10
4828.769691732601
 20
1642.857806753792
 30
0.0
1001
ACAD
1000
DSTYLE
1002
{
1070
   147
1040
0.625
1070
    77
1070
     0
1002
}
  0
LEADER
  5
9893
330
1F
100
AcDbEntity
  8
DIMS
100
AcDbLeader
  3
ISO-25
 76
     2
 10
5500.812421576018
 20
2349.693412328939
 30
0.0
 10
5468.99894632757
 20
1651.761936021985
 30
0.0
1001
ACAD
1000
DSTYLE
1002
{
1070
   147
1040
0.625
1070
    77
1070
     0
1002
}
  0
TEXT
  5
9894
330
1F
100
AcDbEntity
  8
DIMS
100
AcDbText
 10
5707.897095054761
 20
4262.97177905727
 30
0.0
 40
50.0
  1
③
  7
ｽﾀｲﾙ1
100
AcDbText
  0
TEXT
  5
9895
330
1F
100
AcDbEntity
  8
DIMS
100
AcDbText
 10
5874.057047014351
 20
4258.154677219866
 30
0.0
 40
50.0
  1
④
  7
ｽﾀｲﾙ1
100
AcDbText
  0
LEADER
  5
9896
330
1F
100
AcDbEntity
  8
DIMS
100
AcDbLeader
  3
ISO-25
 76
     2
 10
5573.456020924016
 20
4073.657204487928
 30
0.0
 10
5739.711798710111
 20
4253.349250273519
 30
0.0
1001
ACAD
1000
DSTYLE
1002
{
1070
   147
1040
0.625
1070
    77
1070
     0
1002
}
  0
LEADER
  5
9897
330
1F
100
AcDbEntity
  8
DIMS
100
AcDbLeader
  3
ISO-25
 76
     2
 10
5548.118152625994
 20
3929.919742800359
 30
0.0
 10
5907.635510458906
 20
4248.744220982324
 30
0.0
1001
ACAD
1000
DSTYLE
1002
{
1070
   147
1040
0.625
1070
    77
1070
     0
1002
}
  0
LEADER
  5
9898
330
1F
100
AcDbEntity
  8
DIMS
100
AcDbLeader
  3
ISO-25
 76
     2
 10
5260.61815262608
 20
4093.247502930906
 30
0.0
 10
5302.95995045526
 20
4282.831854968883
 30
0.0
1001
ACAD
1000
DSTYLE
1002
{
1070
   147
1040
0.625
1070
    77
1070
     0
1002
}
  0
TEXT
  5
9899
330
1F
100
AcDbEntity
  8
DIMS
100
AcDbText
 10
5269.656019918065
 20
4291.07632346967
 30
0.0
 40
50.0
  1
⑦
  7
ｽﾀｲﾙ1
100
AcDbText
  0
TEXT
  5
989A
330
1F
100
AcDbEntity
  8
DIMS
100
AcDbText
 10
3159.499550437744
 20
986.5877620570044
 30
0.0
 40
50.0
  1
取付け板（片）
  7
ｽﾀｲﾙ1
100
AcDbText
  0
TEXT
  5
98A3
330
1F
100
AcDbEntity
  8
DIMS
100
AcDbText
 10
5279.901915012379
 20
4458.045428957441
 30
0.0
 40
50.0
  1
打掛け錠詳細
  7
ｽﾀｲﾙ1
100
AcDbText
  0
TEXT
  5
98A5
330
1F
100
AcDbEntity
  8
DIMS
100
AcDbText
 10
7530.355929298355
 20
49.31742174303508
 30
0.0
 40
50.0
  1
2004.05.13
  7
ｽﾀｲﾙ1
100
AcDbText
  0
TEXT
  5
9952
330
1F
100
AcDbEntity
  8
DIMS
100
AcDbText
 10
7409.959780259651
 20
5358.434570031568
 30
0.0
 40
90.0
  1
No.6
  7
ｽﾀｲﾙ1
100
AcDbText
  0
ENDSEC
  0
SECTION
  2
OBJECTS
  0
DICTIONARY
  5
C
330
0
100
AcDbDictionary
281
     1
  3
ACAD_CIP_PREVIOUS_PRODUCT_INFO
350
991A
  3
ACAD_COLOR
350
84F6
  3
ACAD_DETAILVIEWSTYLE
350
9910
  3
ACAD_GROUP
350
D
  3
ACAD_LAYOUT
350
1A
  3
ACAD_MATERIAL
350
84F5
  3
ACAD_MLEADERSTYLE
350
990C
  3
ACAD_MLINESTYLE
350
17
  3
ACAD_PLOTSETTINGS
350
19
  3
ACAD_PLOTSTYLENAME
350
E
  3
ACAD_SCALELIST
350
98FA
  3
ACAD_SECTIONVIEWSTYLE
350
990E
  3
ACAD_TABLESTYLE
350
84F7
  3
ACAD_VISUALSTYLE
350
98E1
  3
AcadDim
350
1E22
  3
ACDB_RECOMPOSE_DATA
350
9996
  3
AcDbVariableDictionary
350
8501
  3
AcDsDecomposeData
350
999D
  3
DWGPROPS
350
9997
  0
DICTIONARY
  5
9933
330
2
100
AcDbDictionary
280
     1
281
     1
  3
ACAD_LAYERSTATES
360
9934
  0
DICTIONARY
  5
991C
330
10
100
AcDbDictionary
280
     1
281
     1
  3
ADSK_XREC_LAYER_RECONCILED
360
991D
  0
DICTIONARY
  5
991E
330
2B
100
AcDbDictionary
280
     1
281
     1
  3
ADSK_XREC_LAYER_RECONCILED
360
991F
  0
DICTIONARY
  5
9920
330
2C
100
AcDbDictionary
280
     1
281
     1
  3
ADSK_XREC_LAYER_RECONCILED
360
9921
  0
DICTIONARY
  5
9922
330
2D
100
AcDbDictionary
280
     1
281
     1
  3
ADSK_XREC_LAYER_RECONCILED
360
9923
  0
DICTIONARY
  5
9924
330
9F6
100
AcDbDictionary
280
     1
281
     1
  3
ADSK_XREC_LAYER_RECONCILED
360
9925
  0
DICTIONARY
  5
9926
330
A02
100
AcDbDictionary
280
     1
281
     1
  3
ADSK_XREC_LAYER_RECONCILED
360
9927
  0
DICTIONARY
  5
9928
330
E75
100
AcDbDictionary
280
     1
281
     1
  3
ADSK_XREC_LAYER_RECONCILED
360
9929
  0
DICTIONARY
  5
992E
330
5EF6
100
AcDbDictionary
280
     1
281
     1
  3
ADSK_XREC_LAYER_RECONCILED
360
992F
  0
DICTIONARY
  5
9817
330
1F
100
AcDbDictionary
280
     1
281
     1
  3
ACAD_SORTENTS
360
9818
  0
XRECORD
  5
991A
102
{ACAD_REACTORS
330
C
102
}
330
C
100
AcDbXrecord
280
     1
300
ACDLT
300
2014
300
ACDLT_F_S
  0
DICTIONARY
  5
84F6
102
{ACAD_REACTORS
330
C
102
}
330
C
100
AcDbDictionary
281
     1
  0
DICTIONARY
  5
9910
102
{ACAD_REACTORS
330
C
102
}
330
C
100
AcDbDictionary
281
     1
  3
Metric50
350
9911
  0
DICTIONARY
  5
D
102
{ACAD_REACTORS
330
C
102
}
330
C
100
AcDbDictionary
281
     1
  0
DICTIONARY
  5
1A
102
{ACAD_REACTORS
330
C
102
}
330
C
100
AcDbDictionary
281
     1
  3
Model
350
22
  3
ﾚｲｱｳﾄ1
350
1E
  3
ﾚｲｱｳﾄ2
350
26
  0
DICTIONARY
  5
84F5
102
{ACAD_REACTORS
330
C
102
}
330
C
100
AcDbDictionary
281
     1
  3
ByBlock
350
98D1
  3
ByLayer
350
98C9
  3
Global
350
98D9
  0
DICTIONARY
  5
990C
102
{ACAD_REACTORS
330
C
102
}
330
C
100
AcDbDictionary
281
     1
  3
Standard
350
990D
  0
DICTIONARY
  5
17
102
{ACAD_REACTORS
330
C
102
}
330
C
100
AcDbDictionary
281
     1
  3
Standard
350
18
  0
DICTIONARY
  5
19
102
{ACAD_REACTORS
330
C
102
}
330
C
100
AcDbDictionary
281
     1
  0
ACDBDICTIONARYWDFLT
  5
E
102
{ACAD_REACTORS
330
C
102
}
330
C
100
AcDbDictionary
281
     1
  3
Normal
350
F
100
AcDbDictionaryWithDefault
340
F
  0
DICTIONARY
  5
98FA
102
{ACAD_REACTORS
330
C
102
}
330
C
100
AcDbDictionary
281
     1
  3
A0
350
98FB
  3
A1
350
98FC
  3
A2
350
98FD
  3
A3
350
98FE
  3
A4
350
98FF
  3
A5
350
9900
  3
A6
350
9901
  3
A7
350
9902
  3
A8
350
9903
  3
A9
350
9904
  3
B0
350
9905
  3
B1
350
9906
  3
B2
350
9907
  3
B3
350
9908
  3
B4
350
9909
  3
B5
350
990A
  3
B6
350
990B
  0
DICTIONARY
  5
990E
102
{ACAD_REACTORS
330
C
102
}
330
C
100
AcDbDictionary
281
     1
  3
Metric50
350
990F
  0
DICTIONARY
  5
84F7
102
{ACAD_REACTORS
330
C
102
}
330
C
100
AcDbDictionary
281
     1
  3
Standard
350
84F8
  0
DICTIONARY
  5
98E1
102
{ACAD_REACTORS
330
C
102
}
330
C
100
AcDbDictionary
281
     1
  3
2dWireframe
350
98E7
  3
Basic
350
98E6
  3
Brighten
350
98ED
  3
ColorChange
350
98F1
  3
Conceptual
350
98EA
  3
Dim
350
98EC
  3
EdgeColorOff
350
98F9
  3
Facepattern
350
98F0
  3
Flat
350
98E2
  3
FlatWithEdges
350
98E3
  3
Gouraud
350
98E4
  3
GouraudWithEdges
350
98E5
  3
Hidden
350
98E9
  3
JitterOff
350
98F7
  3
Linepattern
350
98EF
  3
OverhangOff
350
98F8
  3
Realistic
350
98EB
  3
Shaded
350
98F6
  3
Shaded with edges
350
98F5
  3
Shades of Gray
350
98F2
  3
Sketchy
350
98F3
  3
Thicken
350
98EE
  3
Wireframe
350
98E8
  3
X-Ray
350
98F4
  0
XRECORD
  5
1E22
102
{ACAD_REACTORS
330
C
102
}
330
C
100
AcDbXrecord
280
     1
 90
   990106
  3

 60
     0
 61
     0
 62
     1
 63
     3
 64
     0
 65
     0
 66
     0
 67
     3
 68
     1
 69
     0
 70
     0
 71
     0
 72
     0
 40
0.0
170
     0
  0
XRECORD
  5
9996
102
{ACAD_REACTORS
330
C
102
}
330
C
100
AcDbXrecord
280
     1
 90
        1
330
84F8
  0
DICTIONARY
  5
8501
102
{ACAD_REACTORS
330
C
102
}
330
C
100
AcDbDictionary
281
     1
  3
CANNOSCALE
350
9943
  3
CMLEADERSTYLE
350
993F
  3
CTABLESTYLE
350
8502
  3
CVIEWDETAILSTYLE
350
9940
  3
CVIEWSECTIONSTYLE
350
9941
  3
DIMASSOC
350
9993
  3
INDEXCTL
350
9991
  3
LAYEREVAL
350
9945
  3
LAYERNOTIFY
350
9946
  3
LIGHTINGUNITS
350
9944
  3
MSLTSCALE
350
9942
  3
SORTENTS
350
9990
  3
XCLIPFRAME
350
9992
  0
DICTIONARY
  5
999D
102
{ACAD_REACTORS
330
C
102
}
330
C
100
AcDbDictionary
281
     1
  3
AcDsRecords
350
999F
  3
AcDsSchemas
350
999E
1001
ACAD
1070
     2
  0
XRECORD
  5
9997
102
{ACAD_REACTORS
330
C
102
}
330
C
100
AcDbXrecord
280
     1
  1
DWGPROPS COOKIE
  2

  3

  4

  6

  7

  8
funahashi
  9

300
=
301
=
302
=
303
=
304
=
305
=
306
=
307
=
308
=
309
=
 40
3.111079039351851
 41
2452185.592319213
 42
2457240.786773067
  1

 90
        0
  0
DICTIONARY
  5
9934
102
{ACAD_REACTORS
330
9933
102
}
330
9933
100
AcDbDictionary
281
     1
  0
XRECORD
  5
991D
102
{ACAD_REACTORS
330
991C
102
}
330
991C
100
AcDbXrecord
280
     1
290
     1
  0
XRECORD
  5
991F
102
{ACAD_REACTORS
330
991E
102
}
330
991E
100
AcDbXrecord
280
     1
290
     1
  0
XRECORD
  5
9921
102
{ACAD_REACTORS
330
9920
102
}
330
9920
100
AcDbXrecord
280
     1
290
     1
  0
XRECORD
  5
9923
102
{ACAD_REACTORS
330
9922
102
}
330
9922
100
AcDbXrecord
280
     1
290
     1
  0
XRECORD
  5
9925
102
{ACAD_REACTORS
330
9924
102
}
330
9924
100
AcDbXrecord
280
     1
290
     1
  0
XRECORD
  5
9927
102
{ACAD_REACTORS
330
9926
102
}
330
9926
100
AcDbXrecord
280
     1
290
     1
  0
XRECORD
  5
9929
102
{ACAD_REACTORS
330
9928
102
}
330
9928
100
AcDbXrecord
280
     1
290
     1
  0
XRECORD
  5
992F
102
{ACAD_REACTORS
330
992E
102
}
330
992E
100
AcDbXrecord
280
     1
290
     1
  0
SORTENTSTABLE
  5
9818
102
{ACAD_REACTORS
330
9817
102
}
330
9817
100
AcDbSortentsTable
330
1F
331
15BF
  5
15BF
331
E0
  5
E0
331
163E
  5
163E
331
1A24
  5
1A24
331
1AA6
  5
1AA6
331
15BB
  5
15BB
331
1AA2
  5
1AA2
331
1DF4
  5
1DF4
331
1A20
  5
1A20
331
1A5F
  5
1A5F
331
1A1C
  5
1A1C
331
2152
  5
2152
331
1E4F
  5
1E4F
331
1A9E
  5
1A9E
331
1D65
  5
1D65
331
1A5B
  5
1A5B
331
15FA
  5
15FA
331
19E1
  5
19E1
331
1A18
  5
1A18
331
7F8F
  5
7F8F
331
7FD6
  5
7FD6
331
214E
  5
214E
331
1A9A
  5
1A9A
331
7F8B
  5
7F8B
331
807C
  5
807C
331
812E
  5
812E
331
6CF8
  5
6CF8
331
7FC6
  5
7FC6
331
803D
  5
803D
331
8078
  5
8078
331
8039
  5
8039
331
8074
  5
8074
331
8126
  5
8126
331
8165
  5
8165
331
80D3
  5
80D3
331
7FC2
  5
7FC2
331
8122
  5
8122
331
84BD
  5
84BD
331
8161
  5
8161
331
8070
  5
8070
331
15B7
  5
15B7
331
15B3
  5
15B3
331
19DD
  5
19DD
331
1A14
  5
1A14
331
1D5D
  5
1D5D
331
1A53
  5
1A53
331
15F2
  5
15F2
331
19D9
  5
19D9
331
15EE
  5
15EE
331
1A4F
  5
1A4F
331
1D59
  5
1D59
331
7F87
  5
7F87
331
1A92
  5
1A92
331
1A10
  5
1A10
331
19D5
  5
19D5
331
1A4B
  5
1A4B
331
1D55
  5
1D55
331
19D1
  5
19D1
331
1D51
  5
1D51
331
1E23
  5
1E23
331
6CF0
  5
6CF0
331
7FBE
  5
7FBE
331
80AF
  5
80AF
331
8035
  5
8035
331
1D94
  5
1D94
331
1A08
  5
1A08
331
7F7B
  5
7F7B
331
80AB
  5
80AB
331
806C
  5
806C
331
811E
  5
811E
331
815D
  5
815D
331
21A1
  5
21A1
331
7FB6
  5
7FB6
331
80A7
  5
80A7
331
811A
  5
811A
331
835C
  5
835C
331
8159
  5
8159
331
8068
  5
8068
331
8029
  5
8029
331
8064
  5
8064
331
8116
  5
8116
331
8155
  5
8155
331
80A3
  5
80A3
331
7FB2
  5
7FB2
331
8358
  5
8358
331
8112
  5
8112
331
84AD
  5
84AD
331
8151
  5
8151
331
8060
  5
8060
331
84F0
  5
84F0
331
84EC
  5
84EC
331
1A47
  5
1A47
331
15E6
  5
15E6
331
19CD
  5
19CD
331
15E2
  5
15E2
331
1A04
  5
1A04
331
1E1F
  5
1E1F
331
1A43
  5
1A43
331
19C9
  5
19C9
331
1A00
  5
1A00
331
219D
  5
219D
331
1A7A
  5
1A7A
331
1CB1
  5
1CB1
331
19C5
  5
19C5
331
15D2
  5
15D2
331
2199
  5
2199
331
1A76
  5
1A76
331
7F73
  5
7F73
331
1ECA
  5
1ECA
331
19FC
  5
19FC
331
1A3B
  5
1A3B
331
19C1
  5
19C1
331
19F8
  5
19F8
331
1E0B
  5
1E0B
331
6CD8
  5
6CD8
331
7F6F
  5
7F6F
331
8025
  5
8025
331
809F
  5
809F
331
2195
  5
2195
331
1D7C
  5
1D7C
331
1A72
  5
1A72
331
1C91
  5
1C91
331
6CD4
  5
6CD4
331
7F6B
  5
7F6B
331
809B
  5
809B
331
805C
  5
805C
331
810E
  5
810E
331
814D
  5
814D
331
7FAA
  5
7FAA
331
1D78
  5
1D78
331
6CD0
  5
6CD0
331
7FA6
  5
7FA6
331
8097
  5
8097
331
801D
  5
801D
331
810A
  5
810A
331
8149
  5
8149
331
8058
  5
8058
331
8054
  5
8054
331
8145
  5
8145
331
80F6
  5
80F6
331
8093
  5
8093
331
7FA2
  5
7FA2
331
8340
  5
8340
331
84A1
  5
84A1
331
80F2
  5
80F2
331
8141
  5
8141
331
8050
  5
8050
331
84D8
  5
84D8
331
84D4
  5
84D4
331
1A37
  5
1A37
331
15CE
  5
15CE
331
164D
  5
164D
331
1649
  5
1649
331
1A6E
  5
1A6E
331
1AB5
  5
1AB5
331
19F4
  5
19F4
331
1A33
  5
1A33
331
1A2F
  5
1A2F
331
218D
  5
218D
331
1D74
  5
1D74
331
1A6A
  5
1A6A
331
1AB1
  5
1AB1
331
15C6
  5
15C6
331
1645
  5
1645
331
15C2
  5
15C2
331
1A66
  5
1A66
331
6CCC
  5
6CCC
331
1EAA
  5
1EAA
331
1D70
  5
1D70
331
1DFF
  5
1DFF
331
1AAD
  5
1AAD
331
1A2B
  5
1A2B
331
1641
  5
1641
331
215D
  5
215D
331
1D6C
  5
1D6C
331
6CC8
  5
6CC8
331
7F9E
  5
7F9E
331
808F
  5
808F
331
1EA6
  5
1EA6
331
1A62
  5
1A62
331
1AA9
  5
1AA9
331
6CC4
  5
6CC4
331
804C
  5
804C
331
813D
  5
813D
331
808B
  5
808B
331
7FF9
  5
7FF9
331
1EA2
  5
1EA2
331
7F96
  5
7F96
331
8087
  5
8087
331
8139
  5
8139
331
8048
  5
8048
331
7F92
  5
7F92
331
8044
  5
8044
331
8083
  5
8083
331
83EF
  5
83EF
331
8135
  5
8135
331
8170
  5
8170
331
8489
  5
8489
331
8040
  5
8040
331
816C
  5
816C
331
8131
  5
8131
331
8485
  5
8485
331
8168
  5
8168
331
1A27
  5
1A27
331
163D
  5
163D
331
15BA
  5
15BA
331
1AA5
  5
1AA5
331
1A1F
  5
1A1F
331
7F57
  5
7F57
331
2155
  5
2155
331
1DF3
  5
1DF3
331
1AA1
  5
1AA1
331
1A5E
  5
1A5E
331
19E4
  5
19E4
331
15F9
  5
15F9
331
2151
  5
2151
331
1A9D
  5
1A9D
331
1D64
  5
1D64
331
1A1B
  5
1A1B
331
1A5A
  5
1A5A
331
19E0
  5
19E0
331
7F8E
  5
7F8E
331
807F
  5
807F
331
1DEB
  5
1DEB
331
1A99
  5
1A99
331
6CFB
  5
6CFB
331
7F8A
  5
7F8A
331
807B
  5
807B
331
812D
  5
812D
331
7FC5
  5
7FC5
331
8077
  5
8077
331
803C
  5
803C
331
8475
  5
8475
331
8073
  5
8073
331
8125
  5
8125
331
8164
  5
8164
331
80D2
  5
80D2
331
7FC1
  5
7FC1
331
8038
  5
8038
331
8471
  5
8471
331
8160
  5
8160
331
8121
  5
8121
331
83B3
  5
83B3
331
15B6
  5
15B6
331
1A17
  5
1A17
331
19DC
  5
19DC
331
15F1
  5
15F1
331
1D5C
  5
1D5C
331
1A13
  5
1A13
331
1A52
  5
1A52
331
19D8
  5
19D8
331
1A4E
  5
1A4E
331
1A0F
  5
1A0F
331
6CF7
  5
6CF7
331
7F86
  5
7F86
331
1A91
  5
1A91
331
1D58
  5
1D58
331
15ED
  5
15ED
331
19D4
  5
19D4
331
15E9
  5
15E9
331
1D54
  5
1D54
331
6CF3
  5
6CF3
331
21A8
  5
21A8
331
1E26
  5
1E26
331
1A4A
  5
1A4A
331
6CEF
  5
6CEF
331
7FBD
  5
7FBD
331
806F
  5
806F
331
80AE
  5
80AE
331
8034
  5
8034
331
21A4
  5
21A4
331
7F7A
  5
7F7A
331
806B
  5
806B
331
811D
  5
811D
331
815C
  5
815C
331
80AA
  5
80AA
331
7FB9
  5
7FB9
331
21A0
  5
21A0
331
7FB5
  5
7FB5
331
8067
  5
8067
331
80A6
  5
80A6
331
802C
  5
802C
331
8119
  5
8119
331
835B
  5
835B
331
8158
  5
8158
331
8063
  5
8063
331
8154
  5
8154
331
7FB1
  5
7FB1
331
84B0
  5
84B0
331
8111
  5
8111
331
84EF
  5
84EF
331
8150
  5
8150
331
84EB
  5
84EB
331
1A07
  5
1A07
331
1A46
  5
1A46
331
15E1
  5
15E1
331
1A7D
  5
1A7D
331
1D87
  5
1D87
331
1E1E
  5
1E1E
331
1A03
  5
1A03
331
1A42
  5
1A42
331
19C8
  5
19C8
331
1A3E
  5
1A3E
331
19FF
  5
19FF
331
219C
  5
219C
331
1D83
  5
1D83
331
1ECD
  5
1ECD
331
1A79
  5
1A79
331
19C4
  5
19C4
331
15D1
  5
15D1
331
2198
  5
2198
331
1A75
  5
1A75
331
6CDB
  5
6CDB
331
7F72
  5
7F72
331
1EC9
  5
1EC9
331
1A3A
  5
1A3A
331
6CD7
  5
6CD7
331
7F6E
  5
7F6E
331
8024
  5
8024
331
805F
  5
805F
331
809E
  5
809E
331
2194
  5
2194
331
1D7B
  5
1D7B
331
1A71
  5
1A71
331
1C90
  5
1C90
331
6CD3
  5
6CD3
331
7F6A
  5
7F6A
331
805B
  5
805B
331
810D
  5
810D
331
814C
  5
814C
331
809A
  5
809A
331
7FA9
  5
7FA9
331
7FA5
  5
7FA5
331
8057
  5
8057
331
8096
  5
8096
331
8343
  5
8343
331
8092
  5
8092
331
8053
  5
8053
331
833F
  5
833F
331
80F5
  5
80F5
331
8144
  5
8144
331
7FA1
  5
7FA1
331
84A0
  5
84A0
331
80F1
  5
80F1
331
833B
  5
833B
331
84D7
  5
84D7
331
8140
  5
8140
331
19F7
  5
19F7
331
1A36
  5
1A36
331
15CD
  5
15CD
331
164C
  5
164C
331
1648
  5
1648
331
15C9
  5
15C9
331
1A6D
  5
1A6D
331
1D77
  5
1D77
331
1E06
  5
1E06
331
1AB4
  5
1AB4
331
19F3
  5
19F3
331
1A32
  5
1A32
331
1A2E
  5
1A2E
331
1E02
  5
1E02
331
6CCF
  5
6CCF
331
1D73
  5
1D73
331
1A69
  5
1A69
331
1AB0
  5
1AB0
331
1644
  5
1644
331
1640
  5
1640
331
15C1
  5
15C1
331
1A65
  5
1A65
331
6CCB
  5
6CCB
331
1EA9
  5
1EA9
331
1D6F
  5
1D6F
331
1DFE
  5
1DFE
331
1AAC
  5
1AAC
331
1A2A
  5
1A2A
331
6CC7
  5
6CC7
331
7F9D
  5
7F9D
331
804F
  5
804F
331
808E
  5
808E
331
215C
  5
215C
331
1D6B
  5
1D6B
331
1A61
  5
1A61
331
1AA8
  5
1AA8
331
6CC3
  5
6CC3
331
804B
  5
804B
331
813C
  5
813C
331
808A
  5
808A
331
7F99
  5
7F99
331
7FF8
  5
7FF8
331
7F95
  5
7F95
331
8047
  5
8047
331
8086
  5
8086
331
8138
  5
8138
331
7F91
  5
7F91
331
8043
  5
8043
331
8082
  5
8082
331
816F
  5
816F
331
8134
  5
8134
331
8488
  5
8488
331
816B
  5
816B
331
8130
  5
8130
331
15BD
  5
15BD
331
1A26
  5
1A26
331
163C
  5
163C
331
15B9
  5
15B9
331
1AA4
  5
1AA4
331
1A22
  5
1A22
331
1A1E
  5
1A1E
331
2154
  5
2154
331
1AA0
  5
1AA0
331
1D67
  5
1D67
331
1A5D
  5
1A5D
331
19E3
  5
19E3
331
15F8
  5
15F8
331
1D63
  5
1D63
331
2150
  5
2150
331
1A9C
  5
1A9C
331
1A1A
  5
1A1A
331
7F8D
  5
7F8D
331
807E
  5
807E
331
1DEA
  5
1DEA
331
7F89
  5
7F89
331
803F
  5
803F
331
807A
  5
807A
331
812C
  5
812C
331
6CFA
  5
6CFA
331
803B
  5
803B
331
8167
  5
8167
331
8076
  5
8076
331
8128
  5
8128
331
8072
  5
8072
331
8124
  5
8124
331
8163
  5
8163
331
7FC0
  5
7FC0
331
8470
  5
8470
331
8120
  5
8120
331
15B5
  5
15B5
331
19DF
  5
19DF
331
1A16
  5
1A16
331
1A55
  5
1A55
331
15F4
  5
15F4
331
19DB
  5
19DB
331
15F0
  5
15F0
331
1A94
  5
1A94
331
1A12
  5
1A12
331
1A51
  5
1A51
331
19D7
  5
19D7
331
19D3
  5
19D3
331
1A0E
  5
1A0E
331
7F85
  5
7F85
331
1DA2
  5
1DA2
331
1E31
  5
1E31
331
1D57
  5
1D57
331
1A4D
  5
1A4D
331
15EC
  5
15EC
331
15E8
  5
15E8
331
21A7
  5
21A7
331
1A84
  5
1A84
331
1D53
  5
1D53
331
1A49
  5
1A49
331
8037
  5
8037
331
6CF2
  5
6CF2
331
7F7D
  5
7F7D
331
7FBC
  5
7FBC
331
815F
  5
815F
331
806E
  5
806E
331
80AD
  5
80AD
331
8033
  5
8033
331
21A3
  5
21A3
331
7F79
  5
7F79
331
806A
  5
806A
331
835E
  5
835E
331
841D
  5
841D
331
811C
  5
811C
331
815B
  5
815B
331
7FB8
  5
7FB8
331
80A5
  5
80A5
331
8066
  5
8066
331
8157
  5
8157
331
7FB4
  5
7FB4
331
8118
  5
8118
331
835A
  5
835A
331
8114
  5
8114
331
84AF
  5
84AF
331
8153
  5
8153
331
8062
  5
8062
331
80A1
  5
80A1
331
84F2
  5
84F2
331
84EE
  5
84EE
331
1A06
  5
1A06
331
1A45
  5
1A45
331
15E0
  5
15E0
331
1A7C
  5
1A7C
331
1E1D
  5
1E1D
331
219F
  5
219F
331
1D86
  5
1D86
331
1A02
  5
1A02
331
1A41
  5
1A41
331
19C7
  5
19C7
331
1A3D
  5
1A3D
331
19FE
  5
19FE
331
219B
  5
219B
331
1D82
  5
1D82
331
7F75
  5
7F75
331
1ECC
  5
1ECC
331
1A78
  5
1A78
331
19C3
  5
19C3
331
15D0
  5
15D0
331
1A74
  5
1A74
331
2197
  5
2197
331
7F71
  5
7F71
331
1EC8
  5
1EC8
331
1D7E
  5
1D7E
331
1C93
  5
1C93
331
19FA
  5
19FA
331
1A39
  5
1A39
331
6CDA
  5
6CDA
331
2193
  5
2193
331
1D7A
  5
1D7A
331
1A70
  5
1A70
331
805E
  5
805E
331
814F
  5
814F
331
8023
  5
8023
331
6CD6
  5
6CD6
331
801F
  5
801F
331
814B
  5
814B
331
805A
  5
805A
331
8099
  5
8099
331
6CD2
  5
6CD2
331
8056
  5
8056
331
8095
  5
8095
331
7FA4
  5
7FA4
331
8342
  5
8342
331
7FA0
  5
7FA0
331
8091
  5
8091
331
8143
  5
8143
331
849F
  5
849F
331
8052
  5
8052
331
8448
  5
8448
331
833A
  5
833A
331
84D6
  5
84D6
331
80F0
  5
80F0
331
1A35
  5
1A35
331
19F6
  5
19F6
331
15CC
  5
15CC
331
15C8
  5
15C8
331
1A6C
  5
1A6C
331
218F
  5
218F
331
1D76
  5
1D76
331
1E05
  5
1E05
331
1AB3
  5
1AB3
331
19F2
  5
19F2
331
1A31
  5
1A31
331
1647
  5
1647
331
1A2D
  5
1A2D
331
1E01
  5
1E01
331
1A68
  5
1A68
331
1AAF
  5
1AAF
331
15C4
  5
15C4
331
1643
  5
1643
331
6CCE
  5
6CCE
331
15C0
  5
15C0
331
1A64
  5
1A64
331
7F61
  5
7F61
331
1EA8
  5
1EA8
331
1D6E
  5
1D6E
331
1AAB
  5
1AAB
331
19EA
  5
19EA
331
1A29
  5
1A29
331
6CCA
  5
6CCA
331
215B
  5
215B
331
1D6A
  5
1D6A
331
1A60
  5
1A60
331
804E
  5
804E
331
813F
  5
813F
331
808D
  5
808D
331
7FFB
  5
7FFB
331
6CC6
  5
6CC6
331
6CC2
  5
6CC2
331
7F59
  5
7F59
331
7F98
  5
7F98
331
8089
  5
8089
331
813B
  5
813B
331
80EC
  5
80EC
331
804A
  5
804A
331
7FF7
  5
7FF7
331
7F94
  5
7F94
331
8046
  5
8046
331
8085
  5
8085
331
8137
  5
8137
331
7F90
  5
7F90
331
8042
  5
8042
331
84CA
  5
84CA
331
816E
  5
816E
331
8133
  5
8133
331
8081
  5
8081
331
816A
  5
816A
331
84C6
  5
84C6
331
842C
  5
842C
331
8483
  5
8483
331
84C2
  5
84C2
331
163F
  5
163F
331
1A25
  5
1A25
331
1AA7
  5
1AA7
331
15BC
  5
15BC
331
15B8
  5
15B8
331
1AA3
  5
1AA3
331
2157
  5
2157
331
1DF5
  5
1DF5
331
1A21
  5
1A21
331
1A1D
  5
1A1D
331
2153
  5
2153
331
1A9F
  5
1A9F
331
1D66
  5
1D66
331
1A5C
  5
1A5C
331
19E2
  5
19E2
331
214F
  5
214F
331
1A9B
  5
1A9B
331
1D62
  5
1D62
331
1A19
  5
1A19
331
7FD7
  5
7FD7
331
7F8C
  5
7F8C
331
807D
  5
807D
331
812F
  5
812F
331
6CF9
  5
6CF9
331
7F88
  5
7F88
331
803E
  5
803E
331
812B
  5
812B
331
8079
  5
8079
331
8075
  5
8075
331
8127
  5
8127
331
8166
  5
8166
331
803A
  5
803A
331
8123
  5
8123
331
84BE
  5
84BE
331
8162
  5
8162
331
8071
  5
8071
331
15B4
  5
15B4
331
15F7
  5
15F7
331
19DE
  5
19DE
331
1A15
  5
1A15
331
1D5E
  5
1D5E
331
1A54
  5
1A54
331
15F3
  5
15F3
331
19DA
  5
19DA
331
15EF
  5
15EF
331
1A93
  5
1A93
331
1A11
  5
1A11
331
1A50
  5
1A50
331
19D6
  5
19D6
331
19D2
  5
19D2
331
1A0D
  5
1A0D
331
1D56
  5
1D56
331
1A4C
  5
1A4C
331
15EB
  5
15EB
331
6CF5
  5
6CF5
331
1A83
  5
1A83
331
1E24
  5
1E24
331
21A6
  5
21A6
331
1D95
  5
1D95
331
1D52
  5
1D52
331
1A48
  5
1A48
331
6CF1
  5
6CF1
331
7FBF
  5
7FBF
331
8036
  5
8036
331
21A2
  5
21A2
331
7F7C
  5
7F7C
331
80AC
  5
80AC
331
806D
  5
806D
331
811F
  5
811F
331
815E
  5
815E
331
8032
  5
8032
331
7F78
  5
7F78
331
7FB7
  5
7FB7
331
811B
  5
811B
331
815A
  5
815A
331
8069
  5
8069
331
80A8
  5
80A8
331
80A4
  5
80A4
331
8065
  5
8065
331
8117
  5
8117
331
8156
  5
8156
331
7FB3
  5
7FB3
331
8359
  5
8359
331
8113
  5
8113
331
84AE
  5
84AE
331
8152
  5
8152
331
8061
  5
8061
331
80A0
  5
80A0
331
84F1
  5
84F1
331
8349
  5
8349
331
84ED
  5
84ED
331
19CE
  5
19CE
331
1A05
  5
1A05
331
1A44
  5
1A44
331
15E3
  5
15E3
331
19C6
  5
19C6
331
1A01
  5
1A01
331
1A7B
  5
1A7B
331
219E
  5
219E
331
1D85
  5
1D85
331
19FD
  5
19FD
331
219A
  5
219A
331
1D81
  5
1D81
331
1ECB
  5
1ECB
331
1A77
  5
1A77
331
1A3C
  5
1A3C
331
19C2
  5
19C2
331
7F74
  5
7F74
331
1C92
  5
1C92
331
1A73
  5
1A73
331
2196
  5
2196
331
1D7D
  5
1D7D
331
19F9
  5
19F9
331
1A38
  5
1A38
331
6CD9
  5
6CD9
331
7F70
  5
7F70
331
2192
  5
2192
331
1D79
  5
1D79
331
6CD5
  5
6CD5
331
7F6C
  5
7F6C
331
809C
  5
809C
331
805D
  5
805D
331
814E
  5
814E
331
810F
  5
810F
331
6CD1
  5
6CD1
331
801E
  5
801E
331
810B
  5
810B
331
8345
  5
8345
331
814A
  5
814A
331
8059
  5
8059
331
8098
  5
8098
331
8055
  5
8055
331
8146
  5
8146
331
80F7
  5
80F7
331
8094
  5
8094
331
7FA3
  5
7FA3
331
801A
  5
801A
331
8341
  5
8341
331
84A2
  5
84A2
331
80F3
  5
80F3
331
833D
  5
833D
331
8142
  5
8142
331
8051
  5
8051
331
8090
  5
8090
331
84D5
  5
84D5
331
849A
  5
849A
331
15CF
  5
15CF
331
164E
  5
164E
331
1A34
  5
1A34
331
19F5
  5
19F5
331
1A6F
  5
1A6F
331
1AB6
  5
1AB6
331
164A
  5
164A
331
15C7
  5
15C7
331
1A30
  5
1A30
331
1A6B
  5
1A6B
331
218E
  5
218E
331
1D75
  5
1D75
331
1E04
  5
1E04
331
1646
  5
1646
331
1A2C
  5
1A2C
331
1D71
  5
1D71
331
1A67
  5
1A67
331
1AAE
  5
1AAE
331
15C3
  5
15C3
331
1642
  5
1642
331
6CCD
  5
6CCD
331
1AAA
  5
1AAA
331
1A63
  5
1A63
331
1D6D
  5
1D6D
331
1A28
  5
1A28
331
6CC9
  5
6CC9
331
7F60
  5
7F60
331
7F9F
  5
7F9F
331
215A
  5
215A
331
1D69
  5
1D69
331
6CC5
  5
6CC5
331
804D
  5
804D
331
813E
  5
813E
331
808C
  5
808C
331
7F9B
  5
7F9B
331
6CC1
  5
6CC1
331
7F58
  5
7F58
331
7F97
  5
7F97
331
7FF6
  5
7FF6
331
8088
  5
8088
331
813A
  5
813A
331
8049
  5
8049
331
7F93
  5
7F93
331
8045
  5
8045
331
8084
  5
8084
331
8136
  5
8136
331
8171
  5
8171
331
848A
  5
848A
331
843B
  5
843B
331
8041
  5
8041
331
816D
  5
816D
331
80DB
  5
80DB
331
8132
  5
8132
331
8486
  5
8486
331
8080
  5
8080
331
84C9
  5
84C9
331
8169
  5
8169
331
84C5
  5
84C5
331
850C
  5
850C
331
8482
  5
8482
331
84C1
  5
84C1
  0
ACDBDETAILVIEWSTYLE
  5
9911
102
{ACAD_XDICTIONARY
360
993C
102
}
102
{ACAD_REACTORS
330
9910
102
}
330
9910
100
AcDbModelDocViewStyle
 70
     0
  3
Metric50
290
     0
100
AcDbDetailViewStyle
 70
     0
 71
     0
 90
        3
 71
     1
340
11
 40
5.0
340
0
 40
5.0
300

 40
0.0
280
     1
 71
     2
340
16
 90
       25
 71
     3
340
11
 40
5.0
 90
        0
 40
15.0
 90
        1
300
%<\AcVar ViewDetailId>% (%<\AcVar ViewScale \f "%sn">%)
 71
     4
340
16
 90
       25
340
16
 90
       25
280
     0
  0
LAYOUT
  5
22
102
{ACAD_XDICTIONARY
360
99A2
102
}
102
{ACAD_REACTORS
330
1A
102
}
330
1A
100
AcDbPlotSettings
  1

  2
FX DC 250/350/400 ART4-ADV
  4
A3
  6

 40
5.238749980926513
 41
5.238728046417236
 42
5.32342529296875
 43
5.238739013671875
 44
296.9683227539062
 45
419.9889831542968
 46
0.0
 47
0.0
 48
0.0
 49
0.0
140
0.0
141
0.0
142
1.0
143
20.0
 70
 11952
 72
     1
 73
     1
 74
     2
  7
XEROX A3.ctb
 75
    22
147
0.05
148
0.0
149
0.0
100
AcDbLayout
  1
Model
 70
     1
 71
     0
 10
0.0
 20
0.0
 11
12.0
 21
9.0
 12
0.0
 22
0.0
 32
0.0
 14
0.0
 24
0.0
 34
0.0
 15
0.0
 25
0.0
 35
0.0
146
0.0
 13
0.0
 23
0.0
 33
0.0
 16
1.0
 26
0.0
 36
0.0
 17
0.0
 27
1.0
 37
0.0
 76
     0
330
1F
331
98C7
  0
LAYOUT
  5
1E
102
{ACAD_XDICTIONARY
360
99A0
102
}
102
{ACAD_REACTORS
330
1A
102
}
330
1A
100
AcDbPlotSettings
  1

  2
C:\PROGRAM FILES\ACAD LT 2000\plotters\DWF ePlot.pc3
  4

  6

 40
0.0
 41
0.0
 42
0.0
 43
0.0
 44
0.0
 45
0.0
 46
0.0
 47
0.0
 48
0.0
 49
0.0
140
0.0
141
0.0
142
1.0
143
1.0
 70
   688
 72
     0
 73
     0
 74
     5
  7
XEROX A3.ctb
 75
    16
147
1.0
148
0.0
149
0.0
100
AcDbLayout
  1
ﾚｲｱｳﾄ1
 70
     1
 71
     1
 10
0.0
 20
0.0
 11
420.0
 21
297.0
 12
0.0
 22
0.0
 32
0.0
 14
1.000000000000000E+20
 24
1.000000000000000E+20
 34
1.000000000000000E+20
 15
-1.000000000000000E+20
 25
-1.000000000000000E+20
 35
-1.000000000000000E+20
146
0.0
 13
0.0
 23
0.0
 33
0.0
 16
1.0
 26
0.0
 36
0.0
 17
0.0
 27
1.0
 37
0.0
 76
     0
330
1B
  0
LAYOUT
  5
26
102
{ACAD_XDICTIONARY
360
99A4
102
}
102
{ACAD_REACTORS
330
1A
102
}
330
1A
100
AcDbPlotSettings
  1

  2
C:\PROGRAM FILES\ACAD LT 2000\plotters\DWF ePlot.pc3
  4

  6

 40
0.0
 41
0.0
 42
0.0
 43
0.0
 44
0.0
 45
0.0
 46
0.0
 47
0.0
 48
0.0
 49
0.0
140
0.0
141
0.0
142
1.0
143
1.0
 70
   688
 72
     0
 73
     0
 74
     5
  7
XEROX A3.ctb
 75
    16
147
1.0
148
0.0
149
0.0
100
AcDbLayout
  1
ﾚｲｱｳﾄ2
 70
     1
 71
     2
 10
0.0
 20
0.0
 11
12.0
 21
9.0
 12
0.0
 22
0.0
 32
0.0
 14
0.0
 24
0.0
 34
0.0
 15
0.0
 25
0.0
 35
0.0
146
0.0
 13
0.0
 23
0.0
 33
0.0
 16
1.0
 26
0.0
 36
0.0
 17
0.0
 27
1.0
 37
0.0
 76
     0
330
23
  0
MATERIAL
  5
98D1
102
{ACAD_XDICTIONARY
360
98D2
102
}
102
{ACAD_REACTORS
330
84F5
102
}
330
84F5
100
AcDbMaterial
  1
ByBlock
 72
     0
 43
0.0008202099737533
 43
0.0
 43
0.0
 43
0.0
 43
0.0
 43
0.0008202099737533
 43
0.0
 43
0.0
 43
0.0
 43
0.0
 43
1.0
 43
0.0
 43
0.0
 43
0.0
 43
0.0
 43
1.0
 77
     0
 47
0.0008202099737533
 47
0.0
 47
0.0
 47
0.0
 47
0.0
 47
0.0008202099737533
 47
0.0
 47
0.0
 47
0.0
 47
0.0
 47
1.0
 47
0.0
 47
0.0
 47
0.0
 47
0.0
 47
1.0
171
     0
 49
0.0008202099737533
 49
0.0
 49
0.0
 49
0.0
 49
0.0
 49
0.0008202099737533
 49
0.0
 49
0.0
 49
0.0
 49
0.0
 49
1.0
 49
0.0
 49
0.0
 49
0.0
 49
0.0
 49
1.0
175
     0
142
0.0008202099737533
142
0.0
142
0.0
142
0.0
142
0.0
142
0.0008202099737533
142
0.0
142
0.0
142
0.0
142
0.0
142
1.0
142
0.0
142
0.0
142
0.0
142
0.0
142
1.0
179
     0
144
0.0008202099737533
144
0.0
144
0.0
144
0.0
144
0.0
144
0.0008202099737533
144
0.0
144
0.0
144
0.0
144
0.0
144
1.0
144
0.0
144
0.0
144
0.0
144
0.0
144
1.0
147
0.0008202099737533
147
0.0
147
0.0
147
0.0
147
0.0
147
0.0008202099737533
147
0.0
147
0.0
147
0.0
147
0.0
147
1.0
147
0.0
147
0.0
147
0.0
147
0.0
147
1.0
  0
MATERIAL
  5
98C9
102
{ACAD_XDICTIONARY
360
98CA
102
}
102
{ACAD_REACTORS
330
84F5
102
}
330
84F5
100
AcDbMaterial
  1
ByLayer
 72
     0
 43
0.0008202099737533
 43
0.0
 43
0.0
 43
0.0
 43
0.0
 43
0.0008202099737533
 43
0.0
 43
0.0
 43
0.0
 43
0.0
 43
1.0
 43
0.0
 43
0.0
 43
0.0
 43
0.0
 43
1.0
 77
     0
 47
0.0008202099737533
 47
0.0
 47
0.0
 47
0.0
 47
0.0
 47
0.0008202099737533
 47
0.0
 47
0.0
 47
0.0
 47
0.0
 47
1.0
 47
0.0
 47
0.0
 47
0.0
 47
0.0
 47
1.0
171
     0
 49
0.0008202099737533
 49
0.0
 49
0.0
 49
0.0
 49
0.0
 49
0.0008202099737533
 49
0.0
 49
0.0
 49
0.0
 49
0.0
 49
1.0
 49
0.0
 49
0.0
 49
0.0
 49
0.0
 49
1.0
175
     0
142
0.0008202099737533
142
0.0
142
0.0
142
0.0
142
0.0
142
0.0008202099737533
142
0.0
142
0.0
142
0.0
142
0.0
142
1.0
142
0.0
142
0.0
142
0.0
142
0.0
142
1.0
179
     0
144
0.0008202099737533
144
0.0
144
0.0
144
0.0
144
0.0
144
0.0008202099737533
144
0.0
144
0.0
144
0.0
144
0.0
144
1.0
144
0.0
144
0.0
144
0.0
144
0.0
144
1.0
147
0.0008202099737533
147
0.0
147
0.0
147
0.0
147
0.0
147
0.0008202099737533
147
0.0
147
0.0
147
0.0
147
0.0
147
1.0
147
0.0
147
0.0
147
0.0
147
0.0
147
1.0
  0
MATERIAL
  5
98D9
102
{ACAD_XDICTIONARY
360
98DA
102
}
102
{ACAD_REACTORS
330
84F5
102
}
330
84F5
100
AcDbMaterial
  1
Global
 72
     0
 43
0.0008202099737533
 43
0.0
 43
0.0
 43
0.0
 43
0.0
 43
0.0008202099737533
 43
0.0
 43
0.0
 43
0.0
 43
0.0
 43
1.0
 43
0.0
 43
0.0
 43
0.0
 43
0.0
 43
1.0
 77
     0
 47
0.0008202099737533
 47
0.0
 47
0.0
 47
0.0
 47
0.0
 47
0.0008202099737533
 47
0.0
 47
0.0
 47
0.0
 47
0.0
 47
1.0
 47
0.0
 47
0.0
 47
0.0
 47
0.0
 47
1.0
171
     0
 49
0.0008202099737533
 49
0.0
 49
0.0
 49
0.0
 49
0.0
 49
0.0008202099737533
 49
0.0
 49
0.0
 49
0.0
 49
0.0
 49
1.0
 49
0.0
 49
0.0
 49
0.0
 49
0.0
 49
1.0
175
     0
142
0.0008202099737533
142
0.0
142
0.0
142
0.0
142
0.0
142
0.0008202099737533
142
0.0
142
0.0
142
0.0
142
0.0
142
1.0
142
0.0
142
0.0
142
0.0
142
0.0
142
1.0
179
     0
144
0.0008202099737533
144
0.0
144
0.0
144
0.0
144
0.0
144
0.0008202099737533
144
0.0
144
0.0
144
0.0
144
0.0
144
1.0
144
0.0
144
0.0
144
0.0
144
0.0
144
1.0
147
0.0008202099737533
147
0.0
147
0.0
147
0.0
147
0.0
147
0.0008202099737533
147
0.0
147
0.0
147
0.0
147
0.0
147
1.0
147
0.0
147
0.0
147
0.0
147
0.0
147
1.0
  0
MLEADERSTYLE
  5
990D
102
{ACAD_XDICTIONARY
360
99DD
102
}
102
{ACAD_REACTORS
330
990C
102
}
330
990C
100
AcDbMLeaderStyle
170
     2
171
     1
172
     0
 90
        2
 40
0.0
 41
0.0
173
     1
 91
-1056964608
340
14
 92
       -2
290
     1
 42
2.0
291
     1
 43
0.36
  3
Standard
 44
4.0
300

342
11
174
     1
178
     6
175
     1
176
     0
 93
-1056964608
 45
4.0
292
     0
297
     0
 46
4.0
 94
-1056964608
 47
1.0
 49
1.0
140
1.0
293
     1
141
0.0
294
     1
177
     0
142
1.0
295
     0
296
     0
143
0.125
1001
ACAD_MLEADERVER
1070
     2
  0
MLINESTYLE
  5
18
102
{ACAD_REACTORS
330
17
102
}
330
17
100
AcDbMlineStyle
  2
STANDARD
 70
     0
  3

 62
   256
 51
90.0
 52
90.0
 71
     2
 49
0.5
 62
   256
  6
BYLAYER
 49
-0.5
 62
   256
  6
BYLAYER
  0
ACDBPLACEHOLDER
  5
F
102
{ACAD_REACTORS
330
E
102
}
330
E
  0
SCALE
  5
98FB
102
{ACAD_REACTORS
330
98FA
102
}
330
98FA
100
AcDbScale
 70
     0
300
1:1
140
1.0
141
1.0
290
     1
  0
SCALE
  5
98FC
102
{ACAD_REACTORS
330
98FA
102
}
330
98FA
100
AcDbScale
 70
     0
300
1:2
140
1.0
141
2.0
290
     0
  0
SCALE
  5
98FD
102
{ACAD_REACTORS
330
98FA
102
}
330
98FA
100
AcDbScale
 70
     0
300
1:4
140
1.0
141
4.0
290
     0
  0
SCALE
  5
98FE
102
{ACAD_REACTORS
330
98FA
102
}
330
98FA
100
AcDbScale
 70
     0
300
1:5
140
1.0
141
5.0
290
     0
  0
SCALE
  5
98FF
102
{ACAD_REACTORS
330
98FA
102
}
330
98FA
100
AcDbScale
 70
     0
300
1:8
140
1.0
141
8.0
290
     0
  0
SCALE
  5
9900
102
{ACAD_REACTORS
330
98FA
102
}
330
98FA
100
AcDbScale
 70
     0
300
1:10
140
1.0
141
10.0
290
     0
  0
SCALE
  5
9901
102
{ACAD_REACTORS
330
98FA
102
}
330
98FA
100
AcDbScale
 70
     0
300
1:16
140
1.0
141
16.0
290
     0
  0
SCALE
  5
9902
102
{ACAD_REACTORS
330
98FA
102
}
330
98FA
100
AcDbScale
 70
     0
300
1:20
140
1.0
141
20.0
290
     0
  0
SCALE
  5
9903
102
{ACAD_REACTORS
330
98FA
102
}
330
98FA
100
AcDbScale
 70
     0
300
1:30
140
1.0
141
30.0
290
     0
  0
SCALE
  5
9904
102
{ACAD_REACTORS
330
98FA
102
}
330
98FA
100
AcDbScale
 70
     0
300
1:40
140
1.0
141
40.0
290
     0
  0
SCALE
  5
9905
102
{ACAD_REACTORS
330
98FA
102
}
330
98FA
100
AcDbScale
 70
     0
300
1:50
140
1.0
141
50.0
290
     0
  0
SCALE
  5
9906
102
{ACAD_REACTORS
330
98FA
102
}
330
98FA
100
AcDbScale
 70
     0
300
1:100
140
1.0
141
100.0
290
     0
  0
SCALE
  5
9907
102
{ACAD_REACTORS
330
98FA
102
}
330
98FA
100
AcDbScale
 70
     0
300
2:1
140
2.0
141
1.0
290
     0
  0
SCALE
  5
9908
102
{ACAD_REACTORS
330
98FA
102
}
330
98FA
100
AcDbScale
 70
     0
300
4:1
140
4.0
141
1.0
290
     0
  0
SCALE
  5
9909
102
{ACAD_REACTORS
330
98FA
102
}
330
98FA
100
AcDbScale
 70
     0
300
8:1
140
8.0
141
1.0
290
     0
  0
SCALE
  5
990A
102
{ACAD_REACTORS
330
98FA
102
}
330
98FA
100
AcDbScale
 70
     0
300
10:1
140
10.0
141
1.0
290
     0
  0
SCALE
  5
990B
102
{ACAD_REACTORS
330
98FA
102
}
330
98FA
100
AcDbScale
 70
     0
300
100:1
140
100.0
141
1.0
290
     0
  0
ACDBSECTIONVIEWSTYLE
  5
990F
102
{ACAD_XDICTIONARY
360
993A
102
}
102
{ACAD_REACTORS
330
990E
102
}
330
990E
100
AcDbModelDocViewStyle
 70
     0
  3
Metric50
290
     0
100
AcDbSectionViewStyle
 70
     0
 71
     0
 90
      102
 71
     1
340
11
 40
5.0
340
0
340
0
 40
5.0
300
I, O, Q, S, X, Z
 40
10.0
 90
        0
 40
2.5
 90
        0
 71
     2
340
16
 90
       25
340
16
 90
       50
 40
5.0
 40
2.5
 40
5.0
 71
     3
340
11
 40
5.0
 90
        0
 40
15.0
 90
        1
300
%<\AcVar ViewSectionStartId>%-%<\AcVar ViewSectionEndId>% (%<\AcVar ViewScale \f "%sn">%)
 71
     4
300
ANSI31
 40
1.0
 90
        0
290
     0
290
     0
 90
        6
 40
0.0
 40
1.570796326794896
 40
0.2617993877991494
 40
1.308996938995747
 40
-0.2617993877991494
 40
1.832595714594046
  0
TABLESTYLE
  5
84F8
102
{ACAD_XDICTIONARY
360
9994
102
}
102
{ACAD_REACTORS
330
84F7
102
}
330
84F7
100
AcDbTableStyle
  3
Standard
 70
     0
 71
     0
 40
1.5
 41
1.5
280
     0
281
     0
  7
Standard
140
4.5
170
     2
 62
     0
 63
     7
283
     0
274
    -2
284
     1
 64
     0
275
    -2
285
     1
 65
     0
276
    -2
286
     1
 66
     0
277
    -2
287
     1
 67
     0
278
    -2
288
     1
 68
     0
279
    -2
289
     1
 69
     0
  7
Standard
140
6.0
170
     5
 62
     0
 63
     7
283
     0
274
    -2
284
     1
 64
     0
275
    -2
285
     1
 65
     0
276
    -2
286
     1
 66
     0
277
    -2
287
     1
 67
     0
278
    -2
288
     1
 68
     0
279
    -2
289
     1
 69
     0
  7
Standard
140
4.5
170
     5
 62
     0
 63
     7
283
     0
274
    -2
284
     1
 64
     0
275
    -2
285
     1
 65
     0
276
    -2
286
     1
 66
     0
277
    -2
287
     1
 67
     0
278
    -2
288
     1
 68
     0
279
    -2
289
     1
 69
     0
  0
VISUALSTYLE
  5
98E7
102
{ACAD_XDICTIONARY
360
99B6
102
}
102
{ACAD_REACTORS
330
98E1
102
}
330
98E1
100
AcDbVisualStyle
  2
2dWireframe
 70
     4
 71
     0
 72
     2
 73
     0
 90
        0
 40
-0.6
 41
-30.0
 62
     5
 63
     7
 74
     1
 91
        4
 64
     7
 65
   257
 75
     1
175
     1
 42
1.0
 92
        0
 66
   257
 43
1.0
 76
     1
 77
     6
 78
     2
 67
     7
 79
     5
170
     0
171
     0
290
     0
174
     0
 93
        1
 44
0.0
173
     0
291
     0
 45
0.0
1001
ACAD
1000
AcDbSavedByObjectVersion
1070
     0
  0
VISUALSTYLE
  5
98E6
102
{ACAD_XDICTIONARY
360
99B4
102
}
102
{ACAD_REACTORS
330
98E1
102
}
330
98E1
100
AcDbVisualStyle
  2
Basic
 70
     7
 71
     1
 72
     0
 73
     1
 90
        0
 40
-0.6
 41
-30.0
 62
     5
 63
     7
 74
     0
 91
        4
 64
     7
 65
   257
 75
     1
175
     1
 42
1.0
 92
        8
 66
     7
 43
1.0
 76
     1
 77
     6
 78
     2
 67
     7
 79
     5
170
     0
171
     0
290
     0
174
     0
 93
        1
 44
0.0
173
     0
291
     1
 45
0.0
1001
ACAD
1000
AcDbSavedByObjectVersion
1070
     0
  0
VISUALSTYLE
  5
98ED
102
{ACAD_XDICTIONARY
360
99C2
102
}
102
{ACAD_REACTORS
330
98E1
102
}
330
98E1
100
AcDbVisualStyle
  2
Brighten
 70
    12
 71
     2
 72
     2
 73
     0
 90
        0
 40
-0.6
 41
-30.0
 62
     5
 63
     7
 74
     1
 91
        4
 64
     7
 65
   257
 75
     1
175
     1
 42
1.0
 92
        8
 66
     7
 43
1.0
 76
     1
 77
     6
 78
     2
 67
     7
 79
     5
170
     0
171
     0
290
     0
174
     0
 93
        1
 44
50.0
173
     0
291
     1
 45
0.0
1001
ACAD
1000
AcDbSavedByObjectVersion
1070
     0
  0
VISUALSTYLE
  5
98F1
102
{ACAD_XDICTIONARY
360
99CA
102
}
102
{ACAD_REACTORS
330
98E1
102
}
330
98E1
100
AcDbVisualStyle
  2
ColorChange
 70
    16
 71
     2
 72
     2
 73
     3
 90
        0
 40
-0.6
 41
-30.0
 62
     5
 63
     8
 74
     1
 91
        4
 64
     7
 65
   257
 75
     1
175
     1
 42
1.0
 92
        8
 66
     8
 43
1.0
 76
     1
 77
     6
 78
     2
 67
     7
 79
     5
170
     0
171
     0
290
     0
174
     0
 93
        1
 44
0.0
173
     0
291
     1
 45
0.0
1001
ACAD
1000
AcDbSavedByObjectVersion
1070
     0
  0
VISUALSTYLE
  5
98EA
102
{ACAD_XDICTIONARY
360
99BC
102
}
102
{ACAD_REACTORS
330
98E1
102
}
330
98E1
100
AcDbVisualStyle
  2
Conceptual
 70
     9
 71
     3
 72
     2
 73
     0
 90
        0
 40
-0.6
 41
-30.0
 62
     5
 63
     7
 74
     2
 91
        2
 64
     7
 65
   257
 75
     1
175
     1
 42
179.0
 92
        8
 66
     7
 43
1.0
 76
     1
 77
     6
 78
     2
 67
     7
 79
     3
170
     0
171
     0
290
     0
174
     0
 93
        1
 44
0.0
173
     0
291
     0
 45
0.0
1001
ACAD
1000
AcDbSavedByObjectVersion
1070
     0
  0
VISUALSTYLE
  5
98EC
102
{ACAD_XDICTIONARY
360
99C0
102
}
102
{ACAD_REACTORS
330
98E1
102
}
330
98E1
100
AcDbVisualStyle
  2
Dim
 70
    11
 71
     2
 72
     2
 73
     0
 90
        0
 40
-0.6
 41
-30.0
 62
     5
 63
     7
 74
     1
 91
        4
 64
     7
 65
   257
 75
     1
175
     1
 42
1.0
 92
        8
 66
     7
 43
1.0
 76
     1
 77
     6
 78
     2
 67
     7
 79
     5
170
     0
171
     0
290
     0
174
     0
 93
        1
 44
-50.0
173
     0
291
     1
 45
0.0
1001
ACAD
1000
AcDbSavedByObjectVersion
1070
     0
  0
VISUALSTYLE
  5
98F9
102
{ACAD_XDICTIONARY
360
99DA
102
}
102
{ACAD_REACTORS
330
98E1
102
}
330
98E1
100
AcDbVisualStyle
  2
EdgeColorOff
 70
    22
 71
     2
 72
     2
 73
     0
 90
        0
 40
-0.6
 41
-30.0
 62
     5
 63
     7
 74
     1
 91
        4
 64
     7
 65
   257
 75
     1
175
     1
 42
1.0
 92
        8
 66
     7
 43
1.0
 76
     1
 77
     6
 78
     2
 67
     7
 79
     5
170
     0
171
     0
290
     0
174
     0
 93
        1
 44
0.0
173
     0
291
     1
 45
0.0
1001
ACAD
1000
AcDbSavedByObjectVersion
1070
     0
  0
VISUALSTYLE
  5
98F0
102
{ACAD_XDICTIONARY
360
99C8
102
}
102
{ACAD_REACTORS
330
98E1
102
}
330
98E1
100
AcDbVisualStyle
  2
Facepattern
 70
    15
 71
     2
 72
     2
 73
     0
 90
        0
 40
-0.6
 41
-30.0
 62
     5
 63
     7
 74
     1
 91
        4
 64
     7
 65
   257
 75
     1
175
     1
 42
1.0
 92
        8
 66
     7
 43
1.0
 76
     1
 77
     6
 78
     2
 67
     7
 79
     5
170
     0
171
     0
290
     0
174
     0
 93
        1
 44
0.0
173
     0
291
     1
 45
0.0
1001
ACAD
1000
AcDbSavedByObjectVersion
1070
     0
  0
VISUALSTYLE
  5
98E2
102
{ACAD_XDICTIONARY
360
99AC
102
}
102
{ACAD_REACTORS
330
98E1
102
}
330
98E1
100
AcDbVisualStyle
  2
Flat
 70
     0
 71
     2
 72
     1
 73
     1
 90
        2
 40
-0.6
 41
30.0
 62
     5
 63
     7
 74
     0
 91
        0
 64
     7
 65
   257
 75
     1
175
     1
 42
1.0
 92
        8
 66
     7
 43
1.0
 76
     1
 77
     6
 78
     2
 67
     7
 79
     5
170
     0
171
     0
290
     0
174
     0
 93
       13
 44
0.0
173
     0
291
     1
 45
0.0
1001
ACAD
1000
AcDbSavedByObjectVersion
1070
     0
  0
VISUALSTYLE
  5
98E3
102
{ACAD_XDICTIONARY
360
99AE
102
}
102
{ACAD_REACTORS
330
98E1
102
}
330
98E1
100
AcDbVisualStyle
  2
FlatWithEdges
 70
     1
 71
     2
 72
     1
 73
     1
 90
        2
 40
-0.6
 41
30.0
 62
     5
 63
     7
 74
     1
 91
        0
 64
     7
 65
   257
 75
     1
175
     1
 42
1.0
 92
        0
 66
   257
 43
1.0
 76
     1
 77
     6
 78
     2
 67
     7
 79
     5
170
     0
171
     0
290
     0
174
     0
 93
       13
 44
0.0
173
     0
291
     1
 45
0.0
1001
ACAD
1000
AcDbSavedByObjectVersion
1070
     0
  0
VISUALSTYLE
  5
98E4
102
{ACAD_XDICTIONARY
360
99B0
102
}
102
{ACAD_REACTORS
330
98E1
102
}
330
98E1
100
AcDbVisualStyle
  2
Gouraud
 70
     2
 71
     2
 72
     2
 73
     1
 90
        2
 40
-0.6
 41
30.0
 62
     5
 63
     7
 74
     0
 91
        0
 64
     7
 65
   257
 75
     1
175
     1
 42
1.0
 92
        0
 66
     7
 43
1.0
 76
     1
 77
     6
 78
     2
 67
     7
 79
     5
170
     0
171
     0
290
     0
174
     0
 93
       13
 44
0.0
173
     0
291
     1
 45
0.0
1001
ACAD
1000
AcDbSavedByObjectVersion
1070
     0
  0
VISUALSTYLE
  5
98E5
102
{ACAD_XDICTIONARY
360
99B2
102
}
102
{ACAD_REACTORS
330
98E1
102
}
330
98E1
100
AcDbVisualStyle
  2
GouraudWithEdges
 70
     3
 71
     2
 72
     2
 73
     1
 90
        2
 40
-0.6
 41
30.0
 62
     5
 63
     7
 74
     1
 91
        0
 64
     7
 65
   257
 75
     1
175
     1
 42
1.0
 92
        0
 66
   257
 43
1.0
 76
     1
 77
     6
 78
     2
 67
     7
 79
     5
170
     0
171
     0
290
     0
174
     0
 93
       13
 44
0.0
173
     0
291
     1
 45
0.0
1001
ACAD
1000
AcDbSavedByObjectVersion
1070
     0
  0
VISUALSTYLE
  5
98E9
102
{ACAD_XDICTIONARY
360
99BA
102
}
102
{ACAD_REACTORS
330
98E1
102
}
330
98E1
100
AcDbVisualStyle
  2
Hidden
 70
     6
 71
     1
 72
     2
 73
     2
 90
        0
 40
-0.6
 41
-30.0
 62
     5
 63
     7
 74
     2
 91
        2
 64
     7
 65
   257
 75
     2
175
     1
 42
40.0
 92
        0
 66
   257
 43
1.0
 76
     1
 77
     6
 78
     2
 67
     7
 79
     3
170
     0
171
     0
290
     0
174
     0
 93
        1
 44
0.0
173
     0
291
     0
 45
0.0
1001
ACAD
1000
AcDbSavedByObjectVersion
1070
     0
  0
VISUALSTYLE
  5
98F7
102
{ACAD_XDICTIONARY
360
99D6
102
}
102
{ACAD_REACTORS
330
98E1
102
}
330
98E1
100
AcDbVisualStyle
  2
JitterOff
 70
    20
 71
     2
 72
     2
 73
     0
 90
        0
 40
-0.6
 41
-30.0
 62
     5
 63
     7
 74
     1
 91
        4
 64
     7
 65
   257
 75
     1
175
     1
 42
1.0
 92
       10
 66
     7
 43
1.0
 76
     1
 77
     6
 78
     2
 67
     7
 79
     5
170
     0
171
     0
290
     0
174
     0
 93
        1
 44
0.0
173
     0
291
     1
 45
0.0
1001
ACAD
1000
AcDbSavedByObjectVersion
1070
     0
  0
VISUALSTYLE
  5
98EF
102
{ACAD_XDICTIONARY
360
99C6
102
}
102
{ACAD_REACTORS
330
98E1
102
}
330
98E1
100
AcDbVisualStyle
  2
Linepattern
 70
    14
 71
     2
 72
     2
 73
     0
 90
        0
 40
-0.6
 41
-30.0
 62
     5
 63
     7
 74
     1
 91
        4
 64
     7
 65
   257
 75
     7
175
     7
 42
1.0
 92
        8
 66
     7
 43
1.0
 76
     1
 77
     6
 78
     2
 67
     7
 79
     5
170
     0
171
     0
290
     0
174
     0
 93
        1
 44
0.0
173
     0
291
     1
 45
0.0
1001
ACAD
1000
AcDbSavedByObjectVersion
1070
     0
  0
VISUALSTYLE
  5
98F8
102
{ACAD_XDICTIONARY
360
99D8
102
}
102
{ACAD_REACTORS
330
98E1
102
}
330
98E1
100
AcDbVisualStyle
  2
OverhangOff
 70
    21
 71
     2
 72
     2
 73
     0
 90
        0
 40
-0.6
 41
-30.0
 62
     5
 63
     7
 74
     1
 91
        4
 64
     7
 65
   257
 75
     1
175
     1
 42
1.0
 92
        9
 66
     7
 43
1.0
 76
     1
 77
     6
 78
     2
 67
     7
 79
     5
170
     0
171
     0
290
     0
174
     0
 93
        1
 44
0.0
173
     0
291
     1
 45
0.0
1001
ACAD
1000
AcDbSavedByObjectVersion
1070
     0
  0
VISUALSTYLE
  5
98EB
102
{ACAD_XDICTIONARY
360
99BE
102
}
102
{ACAD_REACTORS
330
98E1
102
}
330
98E1
100
AcDbVisualStyle
  2
Realistic
 70
     8
 71
     2
 72
     3
 73
     0
 90
        2
 40
-0.6
 41
30.0
 62
     5
 63
     7
 74
     0
 91
        0
 64
     7
 65
   257
 75
     1
175
     1
 42
1.0
 92
        8
 66
   257
 43
1.0
 76
     1
 77
     6
 78
     2
 67
     7
 79
     3
170
     0
171
     0
290
     0
174
     0
 93
       13
 44
0.0
173
     0
291
     0
 45
0.0
1001
ACAD
1000
AcDbSavedByObjectVersion
1070
     0
  0
VISUALSTYLE
  5
98F6
102
{ACAD_XDICTIONARY
360
99D4
102
}
102
{ACAD_REACTORS
330
98E1
102
}
330
98E1
100
AcDbVisualStyle
  2
Shaded
 70
    27
 71
     2
 72
     2
 73
     1
 90
        2
 40
-0.6
 41
30.0
 62
     5
 63
     7
 74
     0
 91
        4
 64
     7
 65
   257
 75
     1
175
     1
 42
1.0
 92
        8
 66
   257
 43
1.0
 76
     1
 77
     6
 78
     2
 67
     8
 79
     3
170
     0
171
     0
290
     0
174
     0
 93
        5
 44
0.0
173
     0
291
     0
 45
0.0
1001
ACAD
1000
AcDbSavedByObjectVersion
1070
     0
  0
VISUALSTYLE
  5
98F5
102
{ACAD_XDICTIONARY
360
99D2
102
}
102
{ACAD_REACTORS
330
98E1
102
}
330
98E1
100
AcDbVisualStyle
  2
Shaded with edges
 70
    26
 71
     2
 72
     2
 73
     1
 90
        2
 40
-0.6
 41
30.0
 62
     5
 63
     7
 74
     1
 91
       10
 64
     7
 65
   257
 75
     2
175
     1
 42
1.0
 92
        8
 66
   257
 43
1.0
 76
     1
 77
     6
 78
     2
 67
     7
 79
     3
170
     0
171
     0
290
     0
174
     0
 93
        5
 44
0.0
173
     0
291
     0
 45
0.0
1001
ACAD
1000
AcDbSavedByObjectVersion
1070
     0
  0
VISUALSTYLE
  5
98F2
102
{ACAD_XDICTIONARY
360
99CC
102
}
102
{ACAD_REACTORS
330
98E1
102
}
330
98E1
100
AcDbVisualStyle
  2
Shades of Gray
 70
    23
 71
     2
 72
     2
 73
     3
 90
        0
 40
-0.6
 41
-30.0
 62
     5
 63
     7
 74
     2
 91
        2
 64
     7
 65
     7
 75
     1
175
     1
 42
40.0
 92
        8
 66
     7
 43
1.0
 76
     1
 77
     6
 78
     2
 67
     7
 79
     3
170
     0
171
     0
290
     0
174
     0
 93
        1
 44
0.0
173
     0
291
     0
 45
0.0
1001
ACAD
1000
AcDbSavedByObjectVersion
1070
     0
  0
VISUALSTYLE
  5
98F3
102
{ACAD_XDICTIONARY
360
99CE
102
}
102
{ACAD_REACTORS
330
98E1
102
}
330
98E1
100
AcDbVisualStyle
  2
Sketchy
 70
    24
 71
     1
 72
     2
 73
     2
 90
        0
 40
-0.6
 41
-30.0
 62
     5
 63
     7
 74
     2
 91
        2
 64
     7
 65
     7
 75
     1
175
     1
 42
40.0
 92
       11
 66
     7
 43
1.0
 76
     1
 77
     6
 78
     2
 67
     7
 79
     6
170
     0
171
     0
290
     0
174
     0
 93
        1
 44
0.0
173
     0
291
     0
 45
0.0
1001
ACAD
1000
AcDbSavedByObjectVersion
1070
     0
  0
VISUALSTYLE
  5
98EE
102
{ACAD_XDICTIONARY
360
99C4
102
}
102
{ACAD_REACTORS
330
98E1
102
}
330
98E1
100
AcDbVisualStyle
  2
Thicken
 70
    13
 71
     2
 72
     2
 73
     0
 90
        0
 40
-0.6
 41
-30.0
 62
     5
 63
     7
 74
     1
 91
        4
 64
     7
 65
   257
 75
     1
175
     1
 42
1.0
 92
       12
 66
     7
 43
1.0
 76
     1
 77
     6
 78
     2
 67
     7
 79
     5
170
     0
171
     0
290
     0
174
     0
 93
        1
 44
0.0
173
     0
291
     1
 45
0.0
1001
ACAD
1000
AcDbSavedByObjectVersion
1070
     0
  0
VISUALSTYLE
  5
98E8
102
{ACAD_XDICTIONARY
360
99B8
102
}
102
{ACAD_REACTORS
330
98E1
102
}
330
98E1
100
AcDbVisualStyle
  2
Wireframe
 70
     5
 71
     0
 72
     2
 73
     0
 90
        0
 40
-0.6
 41
-30.0
 62
     5
 63
     7
 74
     1
 91
        4
 64
     7
 65
   257
 75
     1
175
     1
 42
1.0
 92
        0
 66
   257
 43
1.0
 76
     1
 77
     6
 78
     2
 67
     7
 79
     3
170
     0
171
     0
290
     0
174
     0
 93
        1
 44
0.0
173
     0
291
     0
 45
0.0
1001
ACAD
1000
AcDbSavedByObjectVersion
1070
     0
  0
VISUALSTYLE
  5
98F4
102
{ACAD_XDICTIONARY
360
99D0
102
}
102
{ACAD_REACTORS
330
98E1
102
}
330
98E1
100
AcDbVisualStyle
  2
X-Ray
 70
    25
 71
     2
 72
     2
 73
     1
 90
        1
 40
0.5
 41
-30.0
 62
     5
 63
     7
 74
     1
 91
        0
 64
     7
 65
   257
 75
     1
175
     1
 42
1.0
 92
        8
 66
     7
 43
1.0
 76
     1
 77
     6
 78
     2
 67
     7
 79
     3
170
     0
171
     0
290
     0
174
     0
 93
       13
 44
0.0
173
     0
291
     0
 45
0.0
1001
ACAD
1000
AcDbSavedByObjectVersion
1070
     0
  0
DICTIONARYVAR
  5
9943
102
{ACAD_REACTORS
330
8501
102
}
330
8501
100
DictionaryVariables
280
     0
  1
1:1
  0
DICTIONARYVAR
  5
993F
102
{ACAD_REACTORS
330
8501
102
}
330
8501
100
DictionaryVariables
280
     0
  1
STANDARD
  0
DICTIONARYVAR
  5
8502
102
{ACAD_REACTORS
330
8501
102
}
330
8501
100
DictionaryVariables
280
     0
  1
STANDARD
  0
DICTIONARYVAR
  5
9940
102
{ACAD_REACTORS
330
8501
102
}
330
8501
100
DictionaryVariables
280
     0
  1
Metric50
  0
DICTIONARYVAR
  5
9941
102
{ACAD_REACTORS
330
8501
102
}
330
8501
100
DictionaryVariables
280
     0
  1
Metric50
  0
DICTIONARYVAR
  5
9993
102
{ACAD_REACTORS
330
8501
102
}
330
8501
100
DictionaryVariables
280
     0
  1
1
  0
DICTIONARYVAR
  5
9991
102
{ACAD_REACTORS
330
8501
102
}
330
8501
100
DictionaryVariables
280
     0
  1
0
  0
DICTIONARYVAR
  5
9945
102
{ACAD_REACTORS
330
8501
102
}
330
8501
100
DictionaryVariables
280
     0
  1
1
  0
DICTIONARYVAR
  5
9946
102
{ACAD_REACTORS
330
8501
102
}
330
8501
100
DictionaryVariables
280
     0
  1
15
  0
DICTIONARYVAR
  5
9944
102
{ACAD_REACTORS
330
8501
102
}
330
8501
100
DictionaryVariables
280
     0
  1
0
  0
DICTIONARYVAR
  5
9942
102
{ACAD_REACTORS
330
8501
102
}
330
8501
100
DictionaryVariables
280
     0
  1
0
  0
DICTIONARYVAR
  5
9990
102
{ACAD_REACTORS
330
8501
102
}
330
8501
100
DictionaryVariables
280
     0
  1
127
  0
DICTIONARYVAR
  5
9992
102
{ACAD_REACTORS
330
8501
102
}
330
8501
100
DictionaryVariables
280
     0
  1
0
  0
DICTIONARY
  5
999F
102
{ACAD_REACTORS
330
999D
102
}
330
999D
100
AcDbDictionary
281
     1
  0
DICTIONARY
  5
999E
102
{ACAD_REACTORS
330
999D
102
}
330
999D
100
AcDbDictionary
281
     1
  3
8796086783232
350
9998
  3
8796086783248
350
9999
  3
8796086783264
350
999A
  3
8796086783280
350
999B
  3
8796086783296
350
999C
  0
DICTIONARY
  5
993C
330
9911
100
AcDbDictionary
280
     1
281
     1
  3
ACAD_XREC_ROUNDTRIP
360
99E0
  0
DICTIONARY
  5
99A2
330
22
100
AcDbDictionary
280
     1
281
     1
  3
ACAD_XREC_ROUNDTRIP
360
99A3
  0
DICTIONARY
  5
99A0
330
1E
100
AcDbDictionary
280
     1
281
     1
  3
ACAD_XREC_ROUNDTRIP
360
99A1
  0
DICTIONARY
  5
99A4
330
26
100
AcDbDictionary
280
     1
281
     1
  3
ACAD_XREC_ROUNDTRIP
360
99A5
  0
DICTIONARY
  5
98D2
330
98D1
100
AcDbDictionary
280
     1
281
     1
  3
ACAD_XREC_ROUNDTRIP
360
99AA
  3
BUMPTILE
360
98D4
  3
DIFFUSETILE
360
98D3
  3
OPACITYTILE
360
98D7
  3
REFLECTIONTILE
360
98D6
  3
REFRACTIONTILE
360
98D8
  3
SPECULARTILE
360
98D5
  0
DICTIONARY
  5
98CA
330
98C9
100
AcDbDictionary
280
     1
281
     1
  3
ACAD_XREC_ROUNDTRIP
360
99A9
  3
BUMPTILE
360
98CC
  3
DIFFUSETILE
360
98CB
  3
OPACITYTILE
360
98CF
  3
REFLECTIONTILE
360
98CE
  3
REFRACTIONTILE
360
98D0
  3
SPECULARTILE
360
98CD
  0
DICTIONARY
  5
98DA
330
98D9
100
AcDbDictionary
280
     1
281
     1
  3
ACAD_XREC_ROUNDTRIP
360
99AB
  3
BUMPTILE
360
98DC
  3
DIFFUSETILE
360
98DB
  3
OPACITYTILE
360
98DF
  3
REFLECTIONTILE
360
98DE
  3
REFRACTIONTILE
360
98E0
  3
SPECULARTILE
360
98DD
  0
DICTIONARY
  5
99DD
330
990D
100
AcDbDictionary
280
     1
281
     1
  3
ACAD_XREC_ROUNDTRIP
360
99DE
  0
DICTIONARY
  5
993A
330
990F
100
AcDbDictionary
280
     1
281
     1
  3
ACAD_XREC_ROUNDTRIP
360
99DF
  0
DICTIONARY
  5
9994
330
84F8
100
AcDbDictionary
280
     1
281
     1
  3
ACAD_ROUNDTRIP_2008_TABLESTYLE_CELLSTYLEMAP
360
9995
  3
ACAD_XREC_ROUNDTRIP
360
99A8
  0
DICTIONARY
  5
99B6
330
98E7
100
AcDbDictionary
280
     1
281
     1
  3
ACAD_XREC_ROUNDTRIP
360
99B7
  0
DICTIONARY
  5
99B4
330
98E6
100
AcDbDictionary
280
     1
281
     1
  3
ACAD_XREC_ROUNDTRIP
360
99B5
  0
DICTIONARY
  5
99C2
330
98ED
100
AcDbDictionary
280
     1
281
     1
  3
ACAD_XREC_ROUNDTRIP
360
99C3
  0
DICTIONARY
  5
99CA
330
98F1
100
AcDbDictionary
280
     1
281
     1
  3
ACAD_XREC_ROUNDTRIP
360
99CB
  0
DICTIONARY
  5
99BC
330
98EA
100
AcDbDictionary
280
     1
281
     1
  3
ACAD_XREC_ROUNDTRIP
360
99BD
  0
DICTIONARY
  5
99C0
330
98EC
100
AcDbDictionary
280
     1
281
     1
  3
ACAD_XREC_ROUNDTRIP
360
99C1
  0
DICTIONARY
  5
99DA
330
98F9
100
AcDbDictionary
280
     1
281
     1
  3
ACAD_XREC_ROUNDTRIP
360
99DB
  0
DICTIONARY
  5
99C8
330
98F0
100
AcDbDictionary
280
     1
281
     1
  3
ACAD_XREC_ROUNDTRIP
360
99C9
  0
DICTIONARY
  5
99AC
330
98E2
100
AcDbDictionary
280
     1
281
     1
  3
ACAD_XREC_ROUNDTRIP
360
99AD
  0
DICTIONARY
  5
99AE
330
98E3
100
AcDbDictionary
280
     1
281
     1
  3
ACAD_XREC_ROUNDTRIP
360
99AF
  0
DICTIONARY
  5
99B0
330
98E4
100
AcDbDictionary
280
     1
281
     1
  3
ACAD_XREC_ROUNDTRIP
360
99B1
  0
DICTIONARY
  5
99B2
330
98E5
100
AcDbDictionary
280
     1
281
     1
  3
ACAD_XREC_ROUNDTRIP
360
99B3
  0
DICTIONARY
  5
99BA
330
98E9
100
AcDbDictionary
280
     1
281
     1
  3
ACAD_XREC_ROUNDTRIP
360
99BB
  0
DICTIONARY
  5
99D6
330
98F7
100
AcDbDictionary
280
     1
281
     1
  3
ACAD_XREC_ROUNDTRIP
360
99D7
  0
DICTIONARY
  5
99C6
330
98EF
100
AcDbDictionary
280
     1
281
     1
  3
ACAD_XREC_ROUNDTRIP
360
99C7
  0
DICTIONARY
  5
99D8
330
98F8
100
AcDbDictionary
280
     1
281
     1
  3
ACAD_XREC_ROUNDTRIP
360
99D9
  0
DICTIONARY
  5
99BE
330
98EB
100
AcDbDictionary
280
     1
281
     1
  3
ACAD_XREC_ROUNDTRIP
360
99BF
  0
DICTIONARY
  5
99D4
330
98F6
100
AcDbDictionary
280
     1
281
     1
  3
ACAD_XREC_ROUNDTRIP
360
99D5
  0
DICTIONARY
  5
99D2
330
98F5
100
AcDbDictionary
280
     1
281
     1
  3
ACAD_XREC_ROUNDTRIP
360
99D3
  0
DICTIONARY
  5
99CC
330
98F2
100
AcDbDictionary
280
     1
281
     1
  3
ACAD_XREC_ROUNDTRIP
360
99CD
  0
DICTIONARY
  5
99CE
330
98F3
100
AcDbDictionary
280
     1
281
     1
  3
ACAD_XREC_ROUNDTRIP
360
99CF
  0
DICTIONARY
  5
99C4
330
98EE
100
AcDbDictionary
280
     1
281
     1
  3
ACAD_XREC_ROUNDTRIP
360
99C5
  0
DICTIONARY
  5
99B8
330
98E8
100
AcDbDictionary
280
     1
281
     1
  3
ACAD_XREC_ROUNDTRIP
360
99B9
  0
DICTIONARY
  5
99D0
330
98F4
100
AcDbDictionary
280
     1
281
     1
  3
ACAD_XREC_ROUNDTRIP
360
99D1
  0
XRECORD
  5
9998
102
{ACAD_REACTORS
330
999E
102
}
330
999E
100
AcDbXrecord
280
     1
  1
AcDb_Thumbnail_Schema
102
{ATTRRECORD
341
9999
  2
AcDbDs::TreatedAsObjectData
280
     1
291
     1
102
ATTRRECORD}
102
{ATTRRECORD
341
999A
  2
AcDbDs::Legacy
280
     1
291
     1
102
ATTRRECORD}
  2
AcDbDs::ID
280
    10
 91
        8
102
{ATTRRECORD
341
999B
  2
AcDs:Indexable
280
     1
291
     1
102
ATTRRECORD}
102
{ATTRRECORD
341
999C
  2
AcDbDs::HandleAttribute
280
     7
282
     1
102
ATTRRECORD}
  2
Thumbnail_Data
280
    15
 91
        0
  0
XRECORD
  5
9999
102
{ACAD_REACTORS
330
999E
102
}
330
999E
100
AcDbXrecord
280
     1
  1
AcDbDs::TreatedAsObjectDataSchema
  2
AcDbDs::TreatedAsObjectData
280
     1
 91
        0
  0
XRECORD
  5
999A
102
{ACAD_REACTORS
330
999E
102
}
330
999E
100
AcDbXrecord
280
     1
  1
AcDbDs::LegacySchema
  2
AcDbDs::Legacy
280
     1
 91
        0
  0
XRECORD
  5
999B
102
{ACAD_REACTORS
330
999E
102
}
330
999E
100
AcDbXrecord
280
     1
  1
AcDbDs::IndexedPropertySchema
  2
AcDs:Indexable
280
     1
 91
        0
  0
XRECORD
  5
999C
102
{ACAD_REACTORS
330
999E
102
}
330
999E
100
AcDbXrecord
280
     1
  1
AcDbDs::HandleAttributeSchema
  2
AcDbDs::HandleAttribute
280
     7
 91
        1
284
     1
  0
XRECORD
  5
99E0
102
{ACAD_REACTORS
330
993C
102
}
330
993C
100
AcDbXrecord
280
     1
102
DISPLAYNAME
  1
Metric50
102
FLAGS
 90
        0
  0
XRECORD
  5
99A3
102
{ACAD_REACTORS
330
99A2
102
}
330
99A2
100
AcDbXrecord
280
     1
102
SHADEPLOT
 70
     0
102
SHADEPLOTRESLEVEL
 70
     2
102
SHADEPLOTCUSTOMDPI
 70
   300
  0
XRECORD
  5
99A1
102
{ACAD_REACTORS
330
99A0
102
}
330
99A0
100
AcDbXrecord
280
     1
102
SHADEPLOT
 70
     0
102
SHADEPLOTRESLEVEL
 70
     2
102
SHADEPLOTCUSTOMDPI
 70
   300
  0
XRECORD
  5
99A5
102
{ACAD_REACTORS
330
99A4
102
}
330
99A4
100
AcDbXrecord
280
     1
102
SHADEPLOT
 70
     0
102
SHADEPLOTRESLEVEL
 70
     2
102
SHADEPLOTCUSTOMDPI
 70
   300
  0
XRECORD
  5
99AA
102
{ACAD_REACTORS
330
98D2
102
}
330
98D2
100
AcDbXrecord
280
     1
102
MATERIAL
148
0.0
149
0.0
149
0.0
 93
        0
 94
      127
282
     0
 72
     0
 77
     0
171
     0
175
     0
179
     0
273
     0
  0
XRECORD
  5
98D4
102
{ACAD_REACTORS
330
98D2
102
}
330
98D2
100
AcDbXrecord
280
     1
270
     1
271
     1
  0
XRECORD
  5
98D3
102
{ACAD_REACTORS
330
98D2
102
}
330
98D2
100
AcDbXrecord
280
     1
270
     1
271
     1
  0
XRECORD
  5
98D7
102
{ACAD_REACTORS
330
98D2
102
}
330
98D2
100
AcDbXrecord
280
     1
270
     1
271
     1
  0
XRECORD
  5
98D6
102
{ACAD_REACTORS
330
98D2
102
}
330
98D2
100
AcDbXrecord
280
     1
270
     1
271
     1
  0
XRECORD
  5
98D8
102
{ACAD_REACTORS
330
98D2
102
}
330
98D2
100
AcDbXrecord
280
     1
270
     1
271
     1
  0
XRECORD
  5
98D5
102
{ACAD_REACTORS
330
98D2
102
}
330
98D2
100
AcDbXrecord
280
     1
270
     1
271
     1
  0
XRECORD
  5
99A9
102
{ACAD_REACTORS
330
98CA
102
}
330
98CA
100
AcDbXrecord
280
     1
102
MATERIAL
148
0.0
149
0.0
149
0.0
 93
        0
 94
      127
282
     0
 72
     0
 77
     0
171
     0
175
     0
179
     0
273
     0
  0
XRECORD
  5
98CC
102
{ACAD_REACTORS
330
98CA
102
}
330
98CA
100
AcDbXrecord
280
     1
270
     1
271
     1
  0
XRECORD
  5
98CB
102
{ACAD_REACTORS
330
98CA
102
}
330
98CA
100
AcDbXrecord
280
     1
270
     1
271
     1
  0
XRECORD
  5
98CF
102
{ACAD_REACTORS
330
98CA
102
}
330
98CA
100
AcDbXrecord
280
     1
270
     1
271
     1
  0
XRECORD
  5
98CE
102
{ACAD_REACTORS
330
98CA
102
}
330
98CA
100
AcDbXrecord
280
     1
270
     1
271
     1
  0
XRECORD
  5
98D0
102
{ACAD_REACTORS
330
98CA
102
}
330
98CA
100
AcDbXrecord
280
     1
270
     1
271
     1
  0
XRECORD
  5
98CD
102
{ACAD_REACTORS
330
98CA
102
}
330
98CA
100
AcDbXrecord
280
     1
270
     1
271
     1
  0
XRECORD
  5
99AB
102
{ACAD_REACTORS
330
98DA
102
}
330
98DA
100
AcDbXrecord
280
     1
102
MATERIAL
148
0.0
149
0.0
149
0.0
 93
        0
 94
      127
282
     0
 72
     0
 77
     0
171
     0
175
     0
179
     0
273
     0
  0
XRECORD
  5
98DC
102
{ACAD_REACTORS
330
98DA
102
}
330
98DA
100
AcDbXrecord
280
     1
270
     1
271
     1
  0
XRECORD
  5
98DB
102
{ACAD_REACTORS
330
98DA
102
}
330
98DA
100
AcDbXrecord
280
     1
270
     1
271
     1
  0
XRECORD
  5
98DF
102
{ACAD_REACTORS
330
98DA
102
}
330
98DA
100
AcDbXrecord
280
     1
270
     1
271
     1
  0
XRECORD
  5
98DE
102
{ACAD_REACTORS
330
98DA
102
}
330
98DA
100
AcDbXrecord
280
     1
270
     1
271
     1
  0
XRECORD
  5
98E0
102
{ACAD_REACTORS
330
98DA
102
}
330
98DA
100
AcDbXrecord
280
     1
270
     1
271
     1
  0
XRECORD
  5
98DD
102
{ACAD_REACTORS
330
98DA
102
}
330
98DA
100
AcDbXrecord
280
     1
270
     1
271
     1
  0
XRECORD
  5
99DE
102
{ACAD_REACTORS
330
99DD
102
}
330
99DD
100
AcDbXrecord
280
     1
102
ACAD_ROUNDTRIP_2012_MLEADER_STYLE
298
     1
  0
XRECORD
  5
99DF
102
{ACAD_REACTORS
330
993A
102
}
330
993A
100
AcDbXrecord
280
     1
102
DISPLAYNAME
  1
Metric50
102
FLAGS
 90
        0
  0
CELLSTYLEMAP
  5
9995
102
{ACAD_REACTORS
330
9994
102
}
330
9994
100
AcDbCellStyleMap
 90
        3
300
CELLSTYLE
  1
TABLEFORMAT_BEGIN
 90
        5
170
     1
 91
        0
 92
    32768
 62
   257
 93
        1
300
CONTENTFORMAT
  1
CONTENTFORMAT_BEGIN
 90
        0
 91
        0
 92
        4
 93
        0
300

 40
0.0
140
1.0
 94
        5
 62
     0
340
11
144
6.0
309
CONTENTFORMAT_END
171
     1
301
MARGIN
  1
CELLMARGIN_BEGIN
 40
1.5
 40
1.5
 40
1.5
 40
1.5
 40
0.18
 40
0.18
309
CELLMARGIN_END
 94
        6
 95
        1
302
GRIDFORMAT
  1
GRIDFORMAT_BEGIN
 90
        0
 91
        1
 62
     0
 92
       -2
340
0
 93
        0
 40
0.045
309
GRIDFORMAT_END
 95
        2
302
GRIDFORMAT
  1
GRIDFORMAT_BEGIN
 90
        0
 91
        1
 62
     0
 92
       -2
340
0
 93
        0
 40
0.045
309
GRIDFORMAT_END
 95
        4
302
GRIDFORMAT
  1
GRIDFORMAT_BEGIN
 90
        0
 91
        1
 62
     0
 92
       -2
340
0
 93
        0
 40
0.045
309
GRIDFORMAT_END
 95
        8
302
GRIDFORMAT
  1
GRIDFORMAT_BEGIN
 90
        0
 91
        1
 62
     0
 92
       -2
340
0
 93
        0
 40
0.045
309
GRIDFORMAT_END
 95
       16
302
GRIDFORMAT
  1
GRIDFORMAT_BEGIN
 90
        0
 91
        1
 62
     0
 92
       -2
340
0
 93
        0
 40
0.045
309
GRIDFORMAT_END
 95
       32
302
GRIDFORMAT
  1
GRIDFORMAT_BEGIN
 90
        0
 91
        1
 62
     0
 92
       -2
340
0
 93
        0
 40
0.045
309
GRIDFORMAT_END
309
TABLEFORMAT_END
  1
CELLSTYLE_BEGIN
 90
        1
 91
        1
300
_TITLE
309
CELLSTYLE_END
300
CELLSTYLE
  1
TABLEFORMAT_BEGIN
 90
        5
170
     1
 91
        0
 92
        0
 62
   257
 93
        1
300
CONTENTFORMAT
  1
CONTENTFORMAT_BEGIN
 90
        0
 91
        0
 92
        4
 93
        0
300

 40
0.0
140
1.0
 94
        5
 62
     0
340
11
144
4.5
309
CONTENTFORMAT_END
171
     1
301
MARGIN
  1
CELLMARGIN_BEGIN
 40
1.5
 40
1.5
 40
1.5
 40
1.5
 40
0.18
 40
0.18
309
CELLMARGIN_END
 94
        6
 95
        1
302
GRIDFORMAT
  1
GRIDFORMAT_BEGIN
 90
        0
 91
        1
 62
     0
 92
       -2
340
0
 93
        0
 40
0.045
309
GRIDFORMAT_END
 95
        2
302
GRIDFORMAT
  1
GRIDFORMAT_BEGIN
 90
        0
 91
        1
 62
     0
 92
       -2
340
0
 93
        0
 40
0.045
309
GRIDFORMAT_END
 95
        4
302
GRIDFORMAT
  1
GRIDFORMAT_BEGIN
 90
        0
 91
        1
 62
     0
 92
       -2
340
0
 93
        0
 40
0.045
309
GRIDFORMAT_END
 95
        8
302
GRIDFORMAT
  1
GRIDFORMAT_BEGIN
 90
        0
 91
        1
 62
     0
 92
       -2
340
0
 93
        0
 40
0.045
309
GRIDFORMAT_END
 95
       16
302
GRIDFORMAT
  1
GRIDFORMAT_BEGIN
 90
        0
 91
        1
 62
     0
 92
       -2
340
0
 93
        0
 40
0.045
309
GRIDFORMAT_END
 95
       32
302
GRIDFORMAT
  1
GRIDFORMAT_BEGIN
 90
        0
 91
        1
 62
     0
 92
       -2
340
0
 93
        0
 40
0.045
309
GRIDFORMAT_END
309
TABLEFORMAT_END
  1
CELLSTYLE_BEGIN
 90
        2
 91
        1
300
_HEADER
309
CELLSTYLE_END
300
CELLSTYLE
  1
TABLEFORMAT_BEGIN
 90
        5
170
     1
 91
        0
 92
        0
 62
   257
 93
        1
300
CONTENTFORMAT
  1
CONTENTFORMAT_BEGIN
 90
        0
 91
        0
 92
        4
 93
        0
300

 40
0.0
140
1.0
 94
        2
 62
     0
340
11
144
4.5
309
CONTENTFORMAT_END
171
     1
301
MARGIN
  1
CELLMARGIN_BEGIN
 40
1.5
 40
1.5
 40
1.5
 40
1.5
 40
0.18
 40
0.18
309
CELLMARGIN_END
 94
        6
 95
        1
302
GRIDFORMAT
  1
GRIDFORMAT_BEGIN
 90
        0
 91
        1
 62
     0
 92
       -2
340
0
 93
        0
 40
0.045
309
GRIDFORMAT_END
 95
        2
302
GRIDFORMAT
  1
GRIDFORMAT_BEGIN
 90
        0
 91
        1
 62
     0
 92
       -2
340
0
 93
        0
 40
0.045
309
GRIDFORMAT_END
 95
        4
302
GRIDFORMAT
  1
GRIDFORMAT_BEGIN
 90
        0
 91
        1
 62
     0
 92
       -2
340
0
 93
        0
 40
0.045
309
GRIDFORMAT_END
 95
        8
302
GRIDFORMAT
  1
GRIDFORMAT_BEGIN
 90
        0
 91
        1
 62
     0
 92
       -2
340
0
 93
        0
 40
0.045
309
GRIDFORMAT_END
 95
       16
302
GRIDFORMAT
  1
GRIDFORMAT_BEGIN
 90
        0
 91
        1
 62
     0
 92
       -2
340
0
 93
        0
 40
0.045
309
GRIDFORMAT_END
 95
       32
302
GRIDFORMAT
  1
GRIDFORMAT_BEGIN
 90
        0
 91
        1
 62
     0
 92
       -2
340
0
 93
        0
 40
0.045
309
GRIDFORMAT_END
309
TABLEFORMAT_END
  1
CELLSTYLE_BEGIN
 90
        3
 91
        2
300
_DATA
309
CELLSTYLE_END
  0
XRECORD
  5
99A8
102
{ACAD_REACTORS
330
9994
102
}
330
9994
100
AcDbXrecord
280
     1
102
ACAD_ROUNDTRIP_PRE2007_TABLESTYLE
 90
        4
 91
        0
  1

 92
        4
 93
        0
  2

 94
        4
 95
        0
  3

  0
XRECORD
  5
99B7
102
{ACAD_REACTORS
330
99B6
102
}
330
99B6
100
AcDbXrecord
280
     1
102
RTVSPost2010Prop28
280
     1
102
RTVSPost2010PropOp28
 70
     1
102
RTVSPost2010Prop29
280
     1
102
RTVSPost2010PropOp29
 70
     1
102
RTVSPost2010Prop30
280
     0
102
RTVSPost2010PropOp30
 70
     1
102
RTVSPost2010Prop31
280
     0
102
RTVSPost2010PropOp31
 70
     1
102
RTVSPost2010Prop32
280
     0
102
RTVSPost2010PropOp32
 70
     1
102
RTVSPost2010Prop33
280
     0
102
RTVSPost2010PropOp33
 70
     1
102
RTVSPost2010Prop34
280
     0
102
RTVSPost2010PropOp34
 70
     1
102
RTVSPost2010Prop35
280
     0
102
RTVSPost2010PropOp35
 70
     1
102
RTVSPost2010Prop36
280
     0
102
RTVSPost2010PropOp36
 70
     1
102
RTVSPost2010Prop37
 90
       50
102
RTVSPost2010PropOp37
 70
     1
102
RTVSPost2010Prop38
140
0.0
102
RTVSPost2010PropOp38
 70
     1
102
RTVSPost2010Prop39
140
1.0
102
RTVSPost2010PropOp39
 70
     1
102
RTVSPost2010Prop40
 90
        0
102
RTVSPost2010PropOp40
 70
     1
102
RTVSPost2010Prop41ColorIndex
 90
       18
102
RTVSPost2010Prop41ColorRGB
 90
        0
102
RTVSPost2010PropOp41
 70
     1
102
RTVSPost2010Prop42
 90
       50
102
RTVSPost2010PropOp42
 70
     1
102
RTVSPost2010Prop43
 90
        3
102
RTVSPost2010PropOp43
 70
     1
102
RTVSPost2010Prop44ColorIndex
 90
        5
102
RTVSPost2010Prop44ColorRGB
 90
      255
102
RTVSPost2010PropOp44
 70
     1
102
RTVSPost2010Prop45
280
     0
102
RTVSPost2010PropOp45
 70
     1
102
RTVSPost2010Prop46
 90
       50
102
RTVSPost2010PropOp46
 70
     1
102
RTVSPost2010Prop47
 90
       50
102
RTVSPost2010PropOp47
 70
     1
102
RTVSPost2010Prop48
 90
       50
102
RTVSPost2010PropOp48
 70
     1
102
RTVSPost2010Prop49
280
     0
102
RTVSPost2010PropOp49
 70
     1
102
RTVSPost2010Prop50
 90
       50
102
RTVSPost2010PropOp50
 70
     1
102
RTVSPost2010Prop51ColorIndex
 90
      256
102
RTVSPost2010Prop51ColorRGB
 90
-16777216
102
RTVSPost2010PropOp51
 70
     0
102
RTVSPost2010Prop52
140
1.0
102
RTVSPost2010PropOp52
 70
     0
102
RTVSPost2010Prop53
 90
        2
102
RTVSPost2010PropOp53
 70
     1
102
RTVSPost2010Prop54
  1
strokes_ogs.tif
102
RTVSPost2010PropOp54
 70
     1
102
RTVSPost2010Prop55
280
     0
102
RTVSPost2010PropOp55
 70
     1
102
RTVSPost2010Prop56
140
1.0
102
RTVSPost2010PropOp56
 70
     1
102
RTVSPost2010Prop57
140
1.0
102
RTVSPost2010PropOp57
 70
     1
102
RTVSPropertyOp0
 70
     1
102
RTVSPropertyOp1
 70
     1
102
RTVSPropertyOp2
 70
     1
102
RTVSPropertyOp3
 70
     1
102
RTVSPropertyOp4
 70
     1
102
RTVSPropertyOp5
 70
     1
102
RTVSPropertyOp6
 70
     1
102
RTVSPropertyOp7
 70
     1
102
RTVSPropertyOp8
 70
     1
102
RTVSPropertyOp9
 70
     1
102
RTVSPropertyOp10
 70
     1
102
RTVSPropertyOp11
 70
     1
102
RTVSPropertyOp12
 70
     1
102
RTVSPropertyOp13
 70
     1
102
RTVSPropertyOp14
 70
     1
102
RTVSPropertyOp15
 70
     1
102
RTVSPropertyOp16
 70
     1
102
RTVSPropertyOp17
 70
     1
102
RTVSPropertyOp18
 70
     1
102
RTVSPropertyOp19
 70
     1
102
RTVSPropertyOp20
 70
     1
102
RTVSPropertyOp21
 70
     1
102
RTVSPropertyOp22
 70
     1
102
RTVSPropertyOp23
 70
     1
102
RTVSPropertyOp24
 70
     1
102
RTVSPropertyOp25
 70
     1
102
RTVSPropertyOp26
 70
     1
102
RTVSPropertyOp27
 70
     1
102
RTVSPropertyOp28
 70
     1
102
RTVSPropertyOp29
 70
     1
102
RTVSPropertyOp30
 70
     1
102
RTVSPropertyOp31
 70
     1
102
RTVSPropertyOp32
 70
     1
102
RTVSPropertyOp33
 70
     1
102
RTVSPropertyOp34
 70
     1
102
RTVSPropertyOp35
 70
     1
102
RTVSPropertyOp36
 70
     1
102
RTVSPropertyOp37
 70
     1
102
RTVSPropertyOp38
 70
     1
102
RTVSPropertyOp39
 70
     1
102
RTVSPropertyOp40
 70
     1
102
RTVSPropertyOp41
 70
     1
102
RTVSPropertyOp42
 70
     1
102
RTVSPropertyOp43
 70
     1
102
RTVSPropertyOp44
 70
     1
102
RTVSPropertyOp45
 70
     1
102
RTVSPropertyOp46
 70
     1
102
RTVSPropertyOp47
 70
     1
102
RTVSPropertyOp48
 70
     1
102
RTVSPropertyOp49
 70
     1
102
RTVSPropertyOp50
 70
     1
102
RTVSPropertyOp51
 70
     0
102
RTVSPropertyOp52
 70
     0
102
RTVSPropertyOp53
 70
     1
102
RTVSPropertyOp54
 70
     1
102
RTVSPropertyOp55
 70
     1
102
RTVSPropertyOp56
 70
     1
102
RTVSPropertyOp57
 70
     1
102
RTVSPropertyOp58
 70
     1
102
RTVSPropertyOp59
 70
     1
102
RTVSPropertyOp60
 70
     1
102
RTVSPropertyOp61
 70
     1
102
RTVSPropertyOp62
 70
     1
  0
XRECORD
  5
99B5
102
{ACAD_REACTORS
330
99B4
102
}
330
99B4
100
AcDbXrecord
280
     1
102
RTVSPost2010Prop28
280
     0
102
RTVSPost2010PropOp28
 70
     1
102
RTVSPost2010Prop29
280
     1
102
RTVSPost2010PropOp29
 70
     1
102
RTVSPost2010Prop30
280
     1
102
RTVSPost2010PropOp30
 70
     1
102
RTVSPost2010Prop31
280
     0
102
RTVSPost2010PropOp31
 70
     1
102
RTVSPost2010Prop32
280
     0
102
RTVSPost2010PropOp32
 70
     1
102
RTVSPost2010Prop33
280
     0
102
RTVSPost2010PropOp33
 70
     1
102
RTVSPost2010Prop34
280
     0
102
RTVSPost2010PropOp34
 70
     1
102
RTVSPost2010Prop35
280
     0
102
RTVSPost2010PropOp35
 70
     1
102
RTVSPost2010Prop36
280
     0
102
RTVSPost2010PropOp36
 70
     1
102
RTVSPost2010Prop37
 90
       50
102
RTVSPost2010PropOp37
 70
     1
102
RTVSPost2010Prop38
140
0.0
102
RTVSPost2010PropOp38
 70
     1
102
RTVSPost2010Prop39
140
1.0
102
RTVSPost2010PropOp39
 70
     1
102
RTVSPost2010Prop40
 90
        0
102
RTVSPost2010PropOp40
 70
     1
102
RTVSPost2010Prop41ColorIndex
 90
       18
102
RTVSPost2010Prop41ColorRGB
 90
        0
102
RTVSPost2010PropOp41
 70
     1
102
RTVSPost2010Prop42
 90
       50
102
RTVSPost2010PropOp42
 70
     1
102
RTVSPost2010Prop43
 90
        3
102
RTVSPost2010PropOp43
 70
     1
102
RTVSPost2010Prop44ColorIndex
 90
        5
102
RTVSPost2010Prop44ColorRGB
 90
      255
102
RTVSPost2010PropOp44
 70
     1
102
RTVSPost2010Prop45
280
     0
102
RTVSPost2010PropOp45
 70
     1
102
RTVSPost2010Prop46
 90
       50
102
RTVSPost2010PropOp46
 70
     1
102
RTVSPost2010Prop47
 90
       50
102
RTVSPost2010PropOp47
 70
     1
102
RTVSPost2010Prop48
 90
       50
102
RTVSPost2010PropOp48
 70
     1
102
RTVSPost2010Prop49
280
     0
102
RTVSPost2010PropOp49
 70
     1
102
RTVSPost2010Prop50
 90
       50
102
RTVSPost2010PropOp50
 70
     1
102
RTVSPost2010Prop51ColorIndex
 90
      256
102
RTVSPost2010Prop51ColorRGB
 90
-16777216
102
RTVSPost2010PropOp51
 70
     0
102
RTVSPost2010Prop52
140
1.0
102
RTVSPost2010PropOp52
 70
     0
102
RTVSPost2010Prop53
 90
        2
102
RTVSPost2010PropOp53
 70
     1
102
RTVSPost2010Prop54
  1
strokes_ogs.tif
102
RTVSPost2010PropOp54
 70
     1
102
RTVSPost2010Prop55
280
     0
102
RTVSPost2010PropOp55
 70
     1
102
RTVSPost2010Prop56
140
1.0
102
RTVSPost2010PropOp56
 70
     1
102
RTVSPost2010Prop57
140
1.0
102
RTVSPost2010PropOp57
 70
     1
102
RTVSPropertyOp0
 70
     1
102
RTVSPropertyOp1
 70
     1
102
RTVSPropertyOp2
 70
     1
102
RTVSPropertyOp3
 70
     1
102
RTVSPropertyOp4
 70
     1
102
RTVSPropertyOp5
 70
     1
102
RTVSPropertyOp6
 70
     1
102
RTVSPropertyOp7
 70
     1
102
RTVSPropertyOp8
 70
     1
102
RTVSPropertyOp9
 70
     1
102
RTVSPropertyOp10
 70
     1
102
RTVSPropertyOp11
 70
     1
102
RTVSPropertyOp12
 70
     1
102
RTVSPropertyOp13
 70
     1
102
RTVSPropertyOp14
 70
     1
102
RTVSPropertyOp15
 70
     1
102
RTVSPropertyOp16
 70
     1
102
RTVSPropertyOp17
 70
     1
102
RTVSPropertyOp18
 70
     1
102
RTVSPropertyOp19
 70
     1
102
RTVSPropertyOp20
 70
     1
102
RTVSPropertyOp21
 70
     1
102
RTVSPropertyOp22
 70
     1
102
RTVSPropertyOp23
 70
     1
102
RTVSPropertyOp24
 70
     1
102
RTVSPropertyOp25
 70
     1
102
RTVSPropertyOp26
 70
     1
102
RTVSPropertyOp27
 70
     1
102
RTVSPropertyOp28
 70
     1
102
RTVSPropertyOp29
 70
     1
102
RTVSPropertyOp30
 70
     1
102
RTVSPropertyOp31
 70
     1
102
RTVSPropertyOp32
 70
     1
102
RTVSPropertyOp33
 70
     1
102
RTVSPropertyOp34
 70
     1
102
RTVSPropertyOp35
 70
     1
102
RTVSPropertyOp36
 70
     1
102
RTVSPropertyOp37
 70
     1
102
RTVSPropertyOp38
 70
     1
102
RTVSPropertyOp39
 70
     1
102
RTVSPropertyOp40
 70
     1
102
RTVSPropertyOp41
 70
     1
102
RTVSPropertyOp42
 70
     1
102
RTVSPropertyOp43
 70
     1
102
RTVSPropertyOp44
 70
     1
102
RTVSPropertyOp45
 70
     1
102
RTVSPropertyOp46
 70
     1
102
RTVSPropertyOp47
 70
     1
102
RTVSPropertyOp48
 70
     1
102
RTVSPropertyOp49
 70
     1
102
RTVSPropertyOp50
 70
     1
102
RTVSPropertyOp51
 70
     0
102
RTVSPropertyOp52
 70
     0
102
RTVSPropertyOp53
 70
     1
102
RTVSPropertyOp54
 70
     1
102
RTVSPropertyOp55
 70
     1
102
RTVSPropertyOp56
 70
     1
102
RTVSPropertyOp57
 70
     1
102
RTVSPropertyOp58
 70
     1
102
RTVSPropertyOp59
 70
     1
102
RTVSPropertyOp60
 70
     1
102
RTVSPropertyOp61
 70
     1
102
RTVSPropertyOp62
 70
     1
  0
XRECORD
  5
99C3
102
{ACAD_REACTORS
330
99C2
102
}
330
99C2
100
AcDbXrecord
280
     1
102
RTVSPost2010Prop28
280
     0
102
RTVSPost2010PropOp28
 70
     1
102
RTVSPost2010Prop29
280
     1
102
RTVSPost2010PropOp29
 70
     1
102
RTVSPost2010Prop30
280
     1
102
RTVSPost2010PropOp30
 70
     1
102
RTVSPost2010Prop31
280
     0
102
RTVSPost2010PropOp31
 70
     1
102
RTVSPost2010Prop32
280
     0
102
RTVSPost2010PropOp32
 70
     1
102
RTVSPost2010Prop33
280
     0
102
RTVSPost2010PropOp33
 70
     1
102
RTVSPost2010Prop34
280
     0
102
RTVSPost2010PropOp34
 70
     1
102
RTVSPost2010Prop35
280
     0
102
RTVSPost2010PropOp35
 70
     1
102
RTVSPost2010Prop36
280
     0
102
RTVSPost2010PropOp36
 70
     1
102
RTVSPost2010Prop37
 90
       50
102
RTVSPost2010PropOp37
 70
     1
102
RTVSPost2010Prop38
140
0.0
102
RTVSPost2010PropOp38
 70
     1
102
RTVSPost2010Prop39
140
1.0
102
RTVSPost2010PropOp39
 70
     1
102
RTVSPost2010Prop40
 90
        0
102
RTVSPost2010PropOp40
 70
     1
102
RTVSPost2010Prop41ColorIndex
 90
       18
102
RTVSPost2010Prop41ColorRGB
 90
        0
102
RTVSPost2010PropOp41
 70
     1
102
RTVSPost2010Prop42
 90
       50
102
RTVSPost2010PropOp42
 70
     1
102
RTVSPost2010Prop43
 90
        3
102
RTVSPost2010PropOp43
 70
     1
102
RTVSPost2010Prop44ColorIndex
 90
        5
102
RTVSPost2010Prop44ColorRGB
 90
      255
102
RTVSPost2010PropOp44
 70
     1
102
RTVSPost2010Prop45
280
     0
102
RTVSPost2010PropOp45
 70
     1
102
RTVSPost2010Prop46
 90
       50
102
RTVSPost2010PropOp46
 70
     1
102
RTVSPost2010Prop47
 90
       50
102
RTVSPost2010PropOp47
 70
     1
102
RTVSPost2010Prop48
 90
       50
102
RTVSPost2010PropOp48
 70
     1
102
RTVSPost2010Prop49
280
     0
102
RTVSPost2010PropOp49
 70
     1
102
RTVSPost2010Prop50
 90
       50
102
RTVSPost2010PropOp50
 70
     1
102
RTVSPost2010Prop51ColorIndex
 90
      256
102
RTVSPost2010Prop51ColorRGB
 90
-16777216
102
RTVSPost2010PropOp51
 70
     0
102
RTVSPost2010Prop52
140
1.0
102
RTVSPost2010PropOp52
 70
     0
102
RTVSPost2010Prop53
 90
        2
102
RTVSPost2010PropOp53
 70
     1
102
RTVSPost2010Prop54
  1
strokes_ogs.tif
102
RTVSPost2010PropOp54
 70
     1
102
RTVSPost2010Prop55
280
     0
102
RTVSPost2010PropOp55
 70
     1
102
RTVSPost2010Prop56
140
1.0
102
RTVSPost2010PropOp56
 70
     1
102
RTVSPost2010Prop57
140
1.0
102
RTVSPost2010PropOp57
 70
     1
102
RTVSPropertyOp0
 70
     1
102
RTVSPropertyOp1
 70
     1
102
RTVSPropertyOp2
 70
     1
102
RTVSPropertyOp3
 70
     1
102
RTVSPropertyOp4
 70
     1
102
RTVSPropertyOp5
 70
     1
102
RTVSPropertyOp6
 70
     1
102
RTVSPropertyOp7
 70
     1
102
RTVSPropertyOp8
 70
     1
102
RTVSPropertyOp9
 70
     1
102
RTVSPropertyOp10
 70
     1
102
RTVSPropertyOp11
 70
     1
102
RTVSPropertyOp12
 70
     1
102
RTVSPropertyOp13
 70
     1
102
RTVSPropertyOp14
 70
     1
102
RTVSPropertyOp15
 70
     1
102
RTVSPropertyOp16
 70
     1
102
RTVSPropertyOp17
 70
     1
102
RTVSPropertyOp18
 70
     1
102
RTVSPropertyOp19
 70
     1
102
RTVSPropertyOp20
 70
     1
102
RTVSPropertyOp21
 70
     1
102
RTVSPropertyOp22
 70
     1
102
RTVSPropertyOp23
 70
     1
102
RTVSPropertyOp24
 70
     1
102
RTVSPropertyOp25
 70
     1
102
RTVSPropertyOp26
 70
     1
102
RTVSPropertyOp27
 70
     1
102
RTVSPropertyOp28
 70
     1
102
RTVSPropertyOp29
 70
     1
102
RTVSPropertyOp30
 70
     1
102
RTVSPropertyOp31
 70
     1
102
RTVSPropertyOp32
 70
     1
102
RTVSPropertyOp33
 70
     1
102
RTVSPropertyOp34
 70
     1
102
RTVSPropertyOp35
 70
     1
102
RTVSPropertyOp36
 70
     1
102
RTVSPropertyOp37
 70
     1
102
RTVSPropertyOp38
 70
     1
102
RTVSPropertyOp39
 70
     1
102
RTVSPropertyOp40
 70
     1
102
RTVSPropertyOp41
 70
     1
102
RTVSPropertyOp42
 70
     1
102
RTVSPropertyOp43
 70
     1
102
RTVSPropertyOp44
 70
     1
102
RTVSPropertyOp45
 70
     1
102
RTVSPropertyOp46
 70
     1
102
RTVSPropertyOp47
 70
     1
102
RTVSPropertyOp48
 70
     1
102
RTVSPropertyOp49
 70
     1
102
RTVSPropertyOp50
 70
     1
102
RTVSPropertyOp51
 70
     0
102
RTVSPropertyOp52
 70
     0
102
RTVSPropertyOp53
 70
     1
102
RTVSPropertyOp54
 70
     1
102
RTVSPropertyOp55
 70
     1
102
RTVSPropertyOp56
 70
     1
102
RTVSPropertyOp57
 70
     1
102
RTVSPropertyOp58
 70
     1
102
RTVSPropertyOp59
 70
     1
102
RTVSPropertyOp60
 70
     1
102
RTVSPropertyOp61
 70
     1
102
RTVSPropertyOp62
 70
     1
  0
XRECORD
  5
99CB
102
{ACAD_REACTORS
330
99CA
102
}
330
99CA
100
AcDbXrecord
280
     1
102
RTVSPost2010Prop28
280
     0
102
RTVSPost2010PropOp28
 70
     1
102
RTVSPost2010Prop29
280
     1
102
RTVSPost2010PropOp29
 70
     1
102
RTVSPost2010Prop30
280
     1
102
RTVSPost2010PropOp30
 70
     1
102
RTVSPost2010Prop31
280
     0
102
RTVSPost2010PropOp31
 70
     1
102
RTVSPost2010Prop32
280
     0
102
RTVSPost2010PropOp32
 70
     1
102
RTVSPost2010Prop33
280
     0
102
RTVSPost2010PropOp33
 70
     1
102
RTVSPost2010Prop34
280
     0
102
RTVSPost2010PropOp34
 70
     1
102
RTVSPost2010Prop35
280
     0
102
RTVSPost2010PropOp35
 70
     1
102
RTVSPost2010Prop36
280
     0
102
RTVSPost2010PropOp36
 70
     1
102
RTVSPost2010Prop37
 90
       50
102
RTVSPost2010PropOp37
 70
     1
102
RTVSPost2010Prop38
140
0.0
102
RTVSPost2010PropOp38
 70
     1
102
RTVSPost2010Prop39
140
1.0
102
RTVSPost2010PropOp39
 70
     1
102
RTVSPost2010Prop40
 90
        0
102
RTVSPost2010PropOp40
 70
     1
102
RTVSPost2010Prop41ColorIndex
 90
       18
102
RTVSPost2010Prop41ColorRGB
 90
        0
102
RTVSPost2010PropOp41
 70
     1
102
RTVSPost2010Prop42
 90
       50
102
RTVSPost2010PropOp42
 70
     1
102
RTVSPost2010Prop43
 90
        3
102
RTVSPost2010PropOp43
 70
     1
102
RTVSPost2010Prop44ColorIndex
 90
        5
102
RTVSPost2010Prop44ColorRGB
 90
      255
102
RTVSPost2010PropOp44
 70
     1
102
RTVSPost2010Prop45
280
     0
102
RTVSPost2010PropOp45
 70
     1
102
RTVSPost2010Prop46
 90
       50
102
RTVSPost2010PropOp46
 70
     1
102
RTVSPost2010Prop47
 90
       50
102
RTVSPost2010PropOp47
 70
     1
102
RTVSPost2010Prop48
 90
       50
102
RTVSPost2010PropOp48
 70
     1
102
RTVSPost2010Prop49
280
     0
102
RTVSPost2010PropOp49
 70
     1
102
RTVSPost2010Prop50
 90
       50
102
RTVSPost2010PropOp50
 70
     1
102
RTVSPost2010Prop51ColorIndex
 90
      256
102
RTVSPost2010Prop51ColorRGB
 90
-16777216
102
RTVSPost2010PropOp51
 70
     0
102
RTVSPost2010Prop52
140
1.0
102
RTVSPost2010PropOp52
 70
     0
102
RTVSPost2010Prop53
 90
        2
102
RTVSPost2010PropOp53
 70
     1
102
RTVSPost2010Prop54
  1
strokes_ogs.tif
102
RTVSPost2010PropOp54
 70
     1
102
RTVSPost2010Prop55
280
     0
102
RTVSPost2010PropOp55
 70
     1
102
RTVSPost2010Prop56
140
1.0
102
RTVSPost2010PropOp56
 70
     1
102
RTVSPost2010Prop57
140
1.0
102
RTVSPost2010PropOp57
 70
     1
102
RTVSPropertyOp0
 70
     1
102
RTVSPropertyOp1
 70
     1
102
RTVSPropertyOp2
 70
     1
102
RTVSPropertyOp3
 70
     1
102
RTVSPropertyOp4
 70
     1
102
RTVSPropertyOp5
 70
     1
102
RTVSPropertyOp6
 70
     1
102
RTVSPropertyOp7
 70
     1
102
RTVSPropertyOp8
 70
     1
102
RTVSPropertyOp9
 70
     1
102
RTVSPropertyOp10
 70
     1
102
RTVSPropertyOp11
 70
     1
102
RTVSPropertyOp12
 70
     1
102
RTVSPropertyOp13
 70
     1
102
RTVSPropertyOp14
 70
     1
102
RTVSPropertyOp15
 70
     1
102
RTVSPropertyOp16
 70
     1
102
RTVSPropertyOp17
 70
     1
102
RTVSPropertyOp18
 70
     1
102
RTVSPropertyOp19
 70
     1
102
RTVSPropertyOp20
 70
     1
102
RTVSPropertyOp21
 70
     1
102
RTVSPropertyOp22
 70
     1
102
RTVSPropertyOp23
 70
     1
102
RTVSPropertyOp24
 70
     1
102
RTVSPropertyOp25
 70
     1
102
RTVSPropertyOp26
 70
     1
102
RTVSPropertyOp27
 70
     1
102
RTVSPropertyOp28
 70
     1
102
RTVSPropertyOp29
 70
     1
102
RTVSPropertyOp30
 70
     1
102
RTVSPropertyOp31
 70
     1
102
RTVSPropertyOp32
 70
     1
102
RTVSPropertyOp33
 70
     1
102
RTVSPropertyOp34
 70
     1
102
RTVSPropertyOp35
 70
     1
102
RTVSPropertyOp36
 70
     1
102
RTVSPropertyOp37
 70
     1
102
RTVSPropertyOp38
 70
     1
102
RTVSPropertyOp39
 70
     1
102
RTVSPropertyOp40
 70
     1
102
RTVSPropertyOp41
 70
     1
102
RTVSPropertyOp42
 70
     1
102
RTVSPropertyOp43
 70
     1
102
RTVSPropertyOp44
 70
     1
102
RTVSPropertyOp45
 70
     1
102
RTVSPropertyOp46
 70
     1
102
RTVSPropertyOp47
 70
     1
102
RTVSPropertyOp48
 70
     1
102
RTVSPropertyOp49
 70
     1
102
RTVSPropertyOp50
 70
     1
102
RTVSPropertyOp51
 70
     0
102
RTVSPropertyOp52
 70
     0
102
RTVSPropertyOp53
 70
     1
102
RTVSPropertyOp54
 70
     1
102
RTVSPropertyOp55
 70
     1
102
RTVSPropertyOp56
 70
     1
102
RTVSPropertyOp57
 70
     1
102
RTVSPropertyOp58
 70
     1
102
RTVSPropertyOp59
 70
     1
102
RTVSPropertyOp60
 70
     1
102
RTVSPropertyOp61
 70
     1
102
RTVSPropertyOp62
 70
     1
  0
XRECORD
  5
99BD
102
{ACAD_REACTORS
330
99BC
102
}
330
99BC
100
AcDbXrecord
280
     1
102
RTVSPost2010Prop28
280
     0
102
RTVSPost2010PropOp28
 70
     1
102
RTVSPost2010Prop29
280
     1
102
RTVSPost2010PropOp29
 70
     1
102
RTVSPost2010Prop30
280
     1
102
RTVSPost2010PropOp30
 70
     1
102
RTVSPost2010Prop31
280
     0
102
RTVSPost2010PropOp31
 70
     1
102
RTVSPost2010Prop32
280
     0
102
RTVSPost2010PropOp32
 70
     1
102
RTVSPost2010Prop33
280
     0
102
RTVSPost2010PropOp33
 70
     1
102
RTVSPost2010Prop34
280
     0
102
RTVSPost2010PropOp34
 70
     1
102
RTVSPost2010Prop35
280
     0
102
RTVSPost2010PropOp35
 70
     1
102
RTVSPost2010Prop36
280
     0
102
RTVSPost2010PropOp36
 70
     1
102
RTVSPost2010Prop37
 90
       50
102
RTVSPost2010PropOp37
 70
     1
102
RTVSPost2010Prop38
140
0.0
102
RTVSPost2010PropOp38
 70
     1
102
RTVSPost2010Prop39
140
1.0
102
RTVSPost2010PropOp39
 70
     1
102
RTVSPost2010Prop40
 90
        0
102
RTVSPost2010PropOp40
 70
     1
102
RTVSPost2010Prop41ColorIndex
 90
       18
102
RTVSPost2010Prop41ColorRGB
 90
        0
102
RTVSPost2010PropOp41
 70
     1
102
RTVSPost2010Prop42
 90
       50
102
RTVSPost2010PropOp42
 70
     1
102
RTVSPost2010Prop43
 90
        3
102
RTVSPost2010PropOp43
 70
     1
102
RTVSPost2010Prop44ColorIndex
 90
        5
102
RTVSPost2010Prop44ColorRGB
 90
      255
102
RTVSPost2010PropOp44
 70
     1
102
RTVSPost2010Prop45
280
     0
102
RTVSPost2010PropOp45
 70
     1
102
RTVSPost2010Prop46
 90
       50
102
RTVSPost2010PropOp46
 70
     1
102
RTVSPost2010Prop47
 90
       50
102
RTVSPost2010PropOp47
 70
     1
102
RTVSPost2010Prop48
 90
       50
102
RTVSPost2010PropOp48
 70
     1
102
RTVSPost2010Prop49
280
     0
102
RTVSPost2010PropOp49
 70
     1
102
RTVSPost2010Prop50
 90
       50
102
RTVSPost2010PropOp50
 70
     1
102
RTVSPost2010Prop51ColorIndex
 90
      256
102
RTVSPost2010Prop51ColorRGB
 90
-16777216
102
RTVSPost2010PropOp51
 70
     0
102
RTVSPost2010Prop52
140
1.0
102
RTVSPost2010PropOp52
 70
     0
102
RTVSPost2010Prop53
 90
        2
102
RTVSPost2010PropOp53
 70
     1
102
RTVSPost2010Prop54
  1
strokes_ogs.tif
102
RTVSPost2010PropOp54
 70
     1
102
RTVSPost2010Prop55
280
     0
102
RTVSPost2010PropOp55
 70
     1
102
RTVSPost2010Prop56
140
1.0
102
RTVSPost2010PropOp56
 70
     1
102
RTVSPost2010Prop57
140
1.0
102
RTVSPost2010PropOp57
 70
     1
102
RTVSPropertyOp0
 70
     1
102
RTVSPropertyOp1
 70
     1
102
RTVSPropertyOp2
 70
     1
102
RTVSPropertyOp3
 70
     1
102
RTVSPropertyOp4
 70
     1
102
RTVSPropertyOp5
 70
     1
102
RTVSPropertyOp6
 70
     1
102
RTVSPropertyOp7
 70
     1
102
RTVSPropertyOp8
 70
     1
102
RTVSPropertyOp9
 70
     1
102
RTVSPropertyOp10
 70
     1
102
RTVSPropertyOp11
 70
     1
102
RTVSPropertyOp12
 70
     1
102
RTVSPropertyOp13
 70
     1
102
RTVSPropertyOp14
 70
     1
102
RTVSPropertyOp15
 70
     1
102
RTVSPropertyOp16
 70
     1
102
RTVSPropertyOp17
 70
     1
102
RTVSPropertyOp18
 70
     1
102
RTVSPropertyOp19
 70
     1
102
RTVSPropertyOp20
 70
     1
102
RTVSPropertyOp21
 70
     1
102
RTVSPropertyOp22
 70
     1
102
RTVSPropertyOp23
 70
     1
102
RTVSPropertyOp24
 70
     1
102
RTVSPropertyOp25
 70
     1
102
RTVSPropertyOp26
 70
     1
102
RTVSPropertyOp27
 70
     1
102
RTVSPropertyOp28
 70
     1
102
RTVSPropertyOp29
 70
     1
102
RTVSPropertyOp30
 70
     1
102
RTVSPropertyOp31
 70
     1
102
RTVSPropertyOp32
 70
     1
102
RTVSPropertyOp33
 70
     1
102
RTVSPropertyOp34
 70
     1
102
RTVSPropertyOp35
 70
     1
102
RTVSPropertyOp36
 70
     1
102
RTVSPropertyOp37
 70
     1
102
RTVSPropertyOp38
 70
     1
102
RTVSPropertyOp39
 70
     1
102
RTVSPropertyOp40
 70
     1
102
RTVSPropertyOp41
 70
     1
102
RTVSPropertyOp42
 70
     1
102
RTVSPropertyOp43
 70
     1
102
RTVSPropertyOp44
 70
     1
102
RTVSPropertyOp45
 70
     1
102
RTVSPropertyOp46
 70
     1
102
RTVSPropertyOp47
 70
     1
102
RTVSPropertyOp48
 70
     1
102
RTVSPropertyOp49
 70
     1
102
RTVSPropertyOp50
 70
     1
102
RTVSPropertyOp51
 70
     0
102
RTVSPropertyOp52
 70
     0
102
RTVSPropertyOp53
 70
     1
102
RTVSPropertyOp54
 70
     1
102
RTVSPropertyOp55
 70
     1
102
RTVSPropertyOp56
 70
     1
102
RTVSPropertyOp57
 70
     1
102
RTVSPropertyOp58
 70
     1
102
RTVSPropertyOp59
 70
     1
102
RTVSPropertyOp60
 70
     1
102
RTVSPropertyOp61
 70
     1
102
RTVSPropertyOp62
 70
     1
  0
XRECORD
  5
99C1
102
{ACAD_REACTORS
330
99C0
102
}
330
99C0
100
AcDbXrecord
280
     1
102
RTVSPost2010Prop28
280
     0
102
RTVSPost2010PropOp28
 70
     1
102
RTVSPost2010Prop29
280
     1
102
RTVSPost2010PropOp29
 70
     1
102
RTVSPost2010Prop30
280
     1
102
RTVSPost2010PropOp30
 70
     1
102
RTVSPost2010Prop31
280
     0
102
RTVSPost2010PropOp31
 70
     1
102
RTVSPost2010Prop32
280
     0
102
RTVSPost2010PropOp32
 70
     1
102
RTVSPost2010Prop33
280
     0
102
RTVSPost2010PropOp33
 70
     1
102
RTVSPost2010Prop34
280
     0
102
RTVSPost2010PropOp34
 70
     1
102
RTVSPost2010Prop35
280
     0
102
RTVSPost2010PropOp35
 70
     1
102
RTVSPost2010Prop36
280
     0
102
RTVSPost2010PropOp36
 70
     1
102
RTVSPost2010Prop37
 90
       50
102
RTVSPost2010PropOp37
 70
     1
102
RTVSPost2010Prop38
140
0.0
102
RTVSPost2010PropOp38
 70
     1
102
RTVSPost2010Prop39
140
1.0
102
RTVSPost2010PropOp39
 70
     1
102
RTVSPost2010Prop40
 90
        0
102
RTVSPost2010PropOp40
 70
     1
102
RTVSPost2010Prop41ColorIndex
 90
       18
102
RTVSPost2010Prop41ColorRGB
 90
        0
102
RTVSPost2010PropOp41
 70
     1
102
RTVSPost2010Prop42
 90
       50
102
RTVSPost2010PropOp42
 70
     1
102
RTVSPost2010Prop43
 90
        3
102
RTVSPost2010PropOp43
 70
     1
102
RTVSPost2010Prop44ColorIndex
 90
        5
102
RTVSPost2010Prop44ColorRGB
 90
      255
102
RTVSPost2010PropOp44
 70
     1
102
RTVSPost2010Prop45
280
     0
102
RTVSPost2010PropOp45
 70
     1
102
RTVSPost2010Prop46
 90
       50
102
RTVSPost2010PropOp46
 70
     1
102
RTVSPost2010Prop47
 90
       50
102
RTVSPost2010PropOp47
 70
     1
102
RTVSPost2010Prop48
 90
       50
102
RTVSPost2010PropOp48
 70
     1
102
RTVSPost2010Prop49
280
     0
102
RTVSPost2010PropOp49
 70
     1
102
RTVSPost2010Prop50
 90
       50
102
RTVSPost2010PropOp50
 70
     1
102
RTVSPost2010Prop51ColorIndex
 90
      256
102
RTVSPost2010Prop51ColorRGB
 90
-16777216
102
RTVSPost2010PropOp51
 70
     0
102
RTVSPost2010Prop52
140
1.0
102
RTVSPost2010PropOp52
 70
     0
102
RTVSPost2010Prop53
 90
        2
102
RTVSPost2010PropOp53
 70
     1
102
RTVSPost2010Prop54
  1
strokes_ogs.tif
102
RTVSPost2010PropOp54
 70
     1
102
RTVSPost2010Prop55
280
     0
102
RTVSPost2010PropOp55
 70
     1
102
RTVSPost2010Prop56
140
1.0
102
RTVSPost2010PropOp56
 70
     1
102
RTVSPost2010Prop57
140
1.0
102
RTVSPost2010PropOp57
 70
     1
102
RTVSPropertyOp0
 70
     1
102
RTVSPropertyOp1
 70
     1
102
RTVSPropertyOp2
 70
     1
102
RTVSPropertyOp3
 70
     1
102
RTVSPropertyOp4
 70
     1
102
RTVSPropertyOp5
 70
     1
102
RTVSPropertyOp6
 70
     1
102
RTVSPropertyOp7
 70
     1
102
RTVSPropertyOp8
 70
     1
102
RTVSPropertyOp9
 70
     1
102
RTVSPropertyOp10
 70
     1
102
RTVSPropertyOp11
 70
     1
102
RTVSPropertyOp12
 70
     1
102
RTVSPropertyOp13
 70
     1
102
RTVSPropertyOp14
 70
     1
102
RTVSPropertyOp15
 70
     1
102
RTVSPropertyOp16
 70
     1
102
RTVSPropertyOp17
 70
     1
102
RTVSPropertyOp18
 70
     1
102
RTVSPropertyOp19
 70
     1
102
RTVSPropertyOp20
 70
     1
102
RTVSPropertyOp21
 70
     1
102
RTVSPropertyOp22
 70
     1
102
RTVSPropertyOp23
 70
     1
102
RTVSPropertyOp24
 70
     1
102
RTVSPropertyOp25
 70
     1
102
RTVSPropertyOp26
 70
     1
102
RTVSPropertyOp27
 70
     1
102
RTVSPropertyOp28
 70
     1
102
RTVSPropertyOp29
 70
     1
102
RTVSPropertyOp30
 70
     1
102
RTVSPropertyOp31
 70
     1
102
RTVSPropertyOp32
 70
     1
102
RTVSPropertyOp33
 70
     1
102
RTVSPropertyOp34
 70
     1
102
RTVSPropertyOp35
 70
     1
102
RTVSPropertyOp36
 70
     1
102
RTVSPropertyOp37
 70
     1
102
RTVSPropertyOp38
 70
     1
102
RTVSPropertyOp39
 70
     1
102
RTVSPropertyOp40
 70
     1
102
RTVSPropertyOp41
 70
     1
102
RTVSPropertyOp42
 70
     1
102
RTVSPropertyOp43
 70
     1
102
RTVSPropertyOp44
 70
     1
102
RTVSPropertyOp45
 70
     1
102
RTVSPropertyOp46
 70
     1
102
RTVSPropertyOp47
 70
     1
102
RTVSPropertyOp48
 70
     1
102
RTVSPropertyOp49
 70
     1
102
RTVSPropertyOp50
 70
     1
102
RTVSPropertyOp51
 70
     0
102
RTVSPropertyOp52
 70
     0
102
RTVSPropertyOp53
 70
     1
102
RTVSPropertyOp54
 70
     1
102
RTVSPropertyOp55
 70
     1
102
RTVSPropertyOp56
 70
     1
102
RTVSPropertyOp57
 70
     1
102
RTVSPropertyOp58
 70
     1
102
RTVSPropertyOp59
 70
     1
102
RTVSPropertyOp60
 70
     1
102
RTVSPropertyOp61
 70
     1
102
RTVSPropertyOp62
 70
     1
  0
XRECORD
  5
99DB
102
{ACAD_REACTORS
330
99DA
102
}
330
99DA
100
AcDbXrecord
280
     1
102
RTVSPost2010Prop28
280
     0
102
RTVSPost2010PropOp28
 70
     0
102
RTVSPost2010Prop29
280
     1
102
RTVSPost2010PropOp29
 70
     0
102
RTVSPost2010Prop30
280
     1
102
RTVSPost2010PropOp30
 70
     0
102
RTVSPost2010Prop31
280
     0
102
RTVSPost2010PropOp31
 70
     0
102
RTVSPost2010Prop32
280
     0
102
RTVSPost2010PropOp32
 70
     0
102
RTVSPost2010Prop33
280
     0
102
RTVSPost2010PropOp33
 70
     0
102
RTVSPost2010Prop34
280
     0
102
RTVSPost2010PropOp34
 70
     0
102
RTVSPost2010Prop35
280
     0
102
RTVSPost2010PropOp35
 70
     0
102
RTVSPost2010Prop36
280
     0
102
RTVSPost2010PropOp36
 70
     0
102
RTVSPost2010Prop37
 90
       50
102
RTVSPost2010PropOp37
 70
     0
102
RTVSPost2010Prop38
140
0.0
102
RTVSPost2010PropOp38
 70
     0
102
RTVSPost2010Prop39
140
1.0
102
RTVSPost2010PropOp39
 70
     0
102
RTVSPost2010Prop40
 90
        0
102
RTVSPost2010PropOp40
 70
     0
102
RTVSPost2010Prop41ColorIndex
 90
       18
102
RTVSPost2010Prop41ColorRGB
 90
        0
102
RTVSPost2010PropOp41
 70
     0
102
RTVSPost2010Prop42
 90
       50
102
RTVSPost2010PropOp42
 70
     0
102
RTVSPost2010Prop43
 90
        3
102
RTVSPost2010PropOp43
 70
     0
102
RTVSPost2010Prop44ColorIndex
 90
        5
102
RTVSPost2010Prop44ColorRGB
 90
      255
102
RTVSPost2010PropOp44
 70
     0
102
RTVSPost2010Prop45
280
     0
102
RTVSPost2010PropOp45
 70
     0
102
RTVSPost2010Prop46
 90
       50
102
RTVSPost2010PropOp46
 70
     0
102
RTVSPost2010Prop47
 90
       50
102
RTVSPost2010PropOp47
 70
     0
102
RTVSPost2010Prop48
 90
       50
102
RTVSPost2010PropOp48
 70
     0
102
RTVSPost2010Prop49
280
     0
102
RTVSPost2010PropOp49
 70
     0
102
RTVSPost2010Prop50
 90
       50
102
RTVSPost2010PropOp50
 70
     0
102
RTVSPost2010Prop51ColorIndex
 90
      256
102
RTVSPost2010Prop51ColorRGB
 90
-16777216
102
RTVSPost2010PropOp51
 70
     0
102
RTVSPost2010Prop52
140
1.0
102
RTVSPost2010PropOp52
 70
     0
102
RTVSPost2010Prop53
 90
        2
102
RTVSPost2010PropOp53
 70
     0
102
RTVSPost2010Prop54
  1
strokes_ogs.tif
102
RTVSPost2010PropOp54
 70
     0
102
RTVSPost2010Prop55
280
     0
102
RTVSPost2010PropOp55
 70
     0
102
RTVSPost2010Prop56
140
1.0
102
RTVSPost2010PropOp56
 70
     0
102
RTVSPost2010Prop57
140
1.0
102
RTVSPost2010PropOp57
 70
     0
102
RTVSPropertyOp0
 70
     0
102
RTVSPropertyOp1
 70
     0
102
RTVSPropertyOp2
 70
     0
102
RTVSPropertyOp3
 70
     0
102
RTVSPropertyOp4
 70
     0
102
RTVSPropertyOp5
 70
     0
102
RTVSPropertyOp6
 70
     0
102
RTVSPropertyOp7
 70
     0
102
RTVSPropertyOp8
 70
     0
102
RTVSPropertyOp9
 70
     0
102
RTVSPropertyOp10
 70
     0
102
RTVSPropertyOp11
 70
     0
102
RTVSPropertyOp12
 70
     0
102
RTVSPropertyOp13
 70
     0
102
RTVSPropertyOp14
 70
     2
102
RTVSPropertyOp15
 70
     0
102
RTVSPropertyOp16
 70
     0
102
RTVSPropertyOp17
 70
     0
102
RTVSPropertyOp18
 70
     0
102
RTVSPropertyOp19
 70
     0
102
RTVSPropertyOp20
 70
     0
102
RTVSPropertyOp21
 70
     0
102
RTVSPropertyOp22
 70
     0
102
RTVSPropertyOp23
 70
     0
102
RTVSPropertyOp24
 70
     0
102
RTVSPropertyOp25
 70
     0
102
RTVSPropertyOp26
 70
     0
102
RTVSPropertyOp27
 70
     0
102
RTVSPropertyOp28
 70
     0
102
RTVSPropertyOp29
 70
     0
102
RTVSPropertyOp30
 70
     0
102
RTVSPropertyOp31
 70
     0
102
RTVSPropertyOp32
 70
     0
102
RTVSPropertyOp33
 70
     0
102
RTVSPropertyOp34
 70
     0
102
RTVSPropertyOp35
 70
     0
102
RTVSPropertyOp36
 70
     0
102
RTVSPropertyOp37
 70
     0
102
RTVSPropertyOp38
 70
     0
102
RTVSPropertyOp39
 70
     0
102
RTVSPropertyOp40
 70
     0
102
RTVSPropertyOp41
 70
     0
102
RTVSPropertyOp42
 70
     0
102
RTVSPropertyOp43
 70
     0
102
RTVSPropertyOp44
 70
     0
102
RTVSPropertyOp45
 70
     0
102
RTVSPropertyOp46
 70
     0
102
RTVSPropertyOp47
 70
     0
102
RTVSPropertyOp48
 70
     0
102
RTVSPropertyOp49
 70
     0
102
RTVSPropertyOp50
 70
     0
102
RTVSPropertyOp51
 70
     0
102
RTVSPropertyOp52
 70
     0
102
RTVSPropertyOp53
 70
     0
102
RTVSPropertyOp54
 70
     0
102
RTVSPropertyOp55
 70
     0
102
RTVSPropertyOp56
 70
     0
102
RTVSPropertyOp57
 70
     0
102
RTVSPropertyOp58
 70
     1
102
RTVSPropertyOp59
 70
     1
102
RTVSPropertyOp60
 70
     1
102
RTVSPropertyOp61
 70
     1
102
RTVSPropertyOp62
 70
     1
  0
XRECORD
  5
99C9
102
{ACAD_REACTORS
330
99C8
102
}
330
99C8
100
AcDbXrecord
280
     1
102
RTVSPost2010Prop28
280
     0
102
RTVSPost2010PropOp28
 70
     1
102
RTVSPost2010Prop29
280
     1
102
RTVSPost2010PropOp29
 70
     1
102
RTVSPost2010Prop30
280
     1
102
RTVSPost2010PropOp30
 70
     1
102
RTVSPost2010Prop31
280
     0
102
RTVSPost2010PropOp31
 70
     1
102
RTVSPost2010Prop32
280
     0
102
RTVSPost2010PropOp32
 70
     1
102
RTVSPost2010Prop33
280
     0
102
RTVSPost2010PropOp33
 70
     1
102
RTVSPost2010Prop34
280
     0
102
RTVSPost2010PropOp34
 70
     1
102
RTVSPost2010Prop35
280
     0
102
RTVSPost2010PropOp35
 70
     1
102
RTVSPost2010Prop36
280
     0
102
RTVSPost2010PropOp36
 70
     1
102
RTVSPost2010Prop37
 90
       50
102
RTVSPost2010PropOp37
 70
     1
102
RTVSPost2010Prop38
140
0.0
102
RTVSPost2010PropOp38
 70
     1
102
RTVSPost2010Prop39
140
1.0
102
RTVSPost2010PropOp39
 70
     1
102
RTVSPost2010Prop40
 90
        0
102
RTVSPost2010PropOp40
 70
     1
102
RTVSPost2010Prop41ColorIndex
 90
       18
102
RTVSPost2010Prop41ColorRGB
 90
        0
102
RTVSPost2010PropOp41
 70
     1
102
RTVSPost2010Prop42
 90
       50
102
RTVSPost2010PropOp42
 70
     1
102
RTVSPost2010Prop43
 90
        3
102
RTVSPost2010PropOp43
 70
     1
102
RTVSPost2010Prop44ColorIndex
 90
        5
102
RTVSPost2010Prop44ColorRGB
 90
      255
102
RTVSPost2010PropOp44
 70
     1
102
RTVSPost2010Prop45
280
     0
102
RTVSPost2010PropOp45
 70
     1
102
RTVSPost2010Prop46
 90
       50
102
RTVSPost2010PropOp46
 70
     1
102
RTVSPost2010Prop47
 90
       50
102
RTVSPost2010PropOp47
 70
     1
102
RTVSPost2010Prop48
 90
       50
102
RTVSPost2010PropOp48
 70
     1
102
RTVSPost2010Prop49
280
     0
102
RTVSPost2010PropOp49
 70
     1
102
RTVSPost2010Prop50
 90
       50
102
RTVSPost2010PropOp50
 70
     1
102
RTVSPost2010Prop51ColorIndex
 90
      256
102
RTVSPost2010Prop51ColorRGB
 90
-16777216
102
RTVSPost2010PropOp51
 70
     0
102
RTVSPost2010Prop52
140
1.0
102
RTVSPost2010PropOp52
 70
     0
102
RTVSPost2010Prop53
 90
        2
102
RTVSPost2010PropOp53
 70
     1
102
RTVSPost2010Prop54
  1
strokes_ogs.tif
102
RTVSPost2010PropOp54
 70
     1
102
RTVSPost2010Prop55
280
     0
102
RTVSPost2010PropOp55
 70
     1
102
RTVSPost2010Prop56
140
1.0
102
RTVSPost2010PropOp56
 70
     1
102
RTVSPost2010Prop57
140
1.0
102
RTVSPost2010PropOp57
 70
     1
102
RTVSPropertyOp0
 70
     1
102
RTVSPropertyOp1
 70
     1
102
RTVSPropertyOp2
 70
     1
102
RTVSPropertyOp3
 70
     1
102
RTVSPropertyOp4
 70
     1
102
RTVSPropertyOp5
 70
     1
102
RTVSPropertyOp6
 70
     1
102
RTVSPropertyOp7
 70
     1
102
RTVSPropertyOp8
 70
     1
102
RTVSPropertyOp9
 70
     1
102
RTVSPropertyOp10
 70
     1
102
RTVSPropertyOp11
 70
     1
102
RTVSPropertyOp12
 70
     1
102
RTVSPropertyOp13
 70
     1
102
RTVSPropertyOp14
 70
     1
102
RTVSPropertyOp15
 70
     1
102
RTVSPropertyOp16
 70
     1
102
RTVSPropertyOp17
 70
     1
102
RTVSPropertyOp18
 70
     1
102
RTVSPropertyOp19
 70
     1
102
RTVSPropertyOp20
 70
     1
102
RTVSPropertyOp21
 70
     1
102
RTVSPropertyOp22
 70
     1
102
RTVSPropertyOp23
 70
     1
102
RTVSPropertyOp24
 70
     1
102
RTVSPropertyOp25
 70
     1
102
RTVSPropertyOp26
 70
     1
102
RTVSPropertyOp27
 70
     1
102
RTVSPropertyOp28
 70
     1
102
RTVSPropertyOp29
 70
     1
102
RTVSPropertyOp30
 70
     1
102
RTVSPropertyOp31
 70
     1
102
RTVSPropertyOp32
 70
     1
102
RTVSPropertyOp33
 70
     1
102
RTVSPropertyOp34
 70
     1
102
RTVSPropertyOp35
 70
     1
102
RTVSPropertyOp36
 70
     1
102
RTVSPropertyOp37
 70
     1
102
RTVSPropertyOp38
 70
     1
102
RTVSPropertyOp39
 70
     1
102
RTVSPropertyOp40
 70
     1
102
RTVSPropertyOp41
 70
     1
102
RTVSPropertyOp42
 70
     1
102
RTVSPropertyOp43
 70
     1
102
RTVSPropertyOp44
 70
     1
102
RTVSPropertyOp45
 70
     1
102
RTVSPropertyOp46
 70
     1
102
RTVSPropertyOp47
 70
     1
102
RTVSPropertyOp48
 70
     1
102
RTVSPropertyOp49
 70
     1
102
RTVSPropertyOp50
 70
     1
102
RTVSPropertyOp51
 70
     0
102
RTVSPropertyOp52
 70
     0
102
RTVSPropertyOp53
 70
     1
102
RTVSPropertyOp54
 70
     1
102
RTVSPropertyOp55
 70
     1
102
RTVSPropertyOp56
 70
     1
102
RTVSPropertyOp57
 70
     1
102
RTVSPropertyOp58
 70
     1
102
RTVSPropertyOp59
 70
     1
102
RTVSPropertyOp60
 70
     1
102
RTVSPropertyOp61
 70
     1
102
RTVSPropertyOp62
 70
     1
  0
XRECORD
  5
99AD
102
{ACAD_REACTORS
330
99AC
102
}
330
99AC
100
AcDbXrecord
280
     1
102
RTVSPost2010Prop28
280
     0
102
RTVSPost2010PropOp28
 70
     1
102
RTVSPost2010Prop29
280
     1
102
RTVSPost2010PropOp29
 70
     1
102
RTVSPost2010Prop30
280
     1
102
RTVSPost2010PropOp30
 70
     1
102
RTVSPost2010Prop31
280
     0
102
RTVSPost2010PropOp31
 70
     1
102
RTVSPost2010Prop32
280
     0
102
RTVSPost2010PropOp32
 70
     1
102
RTVSPost2010Prop33
280
     0
102
RTVSPost2010PropOp33
 70
     1
102
RTVSPost2010Prop34
280
     0
102
RTVSPost2010PropOp34
 70
     1
102
RTVSPost2010Prop35
280
     0
102
RTVSPost2010PropOp35
 70
     1
102
RTVSPost2010Prop36
280
     0
102
RTVSPost2010PropOp36
 70
     1
102
RTVSPost2010Prop37
 90
       50
102
RTVSPost2010PropOp37
 70
     1
102
RTVSPost2010Prop38
140
0.0
102
RTVSPost2010PropOp38
 70
     1
102
RTVSPost2010Prop39
140
1.0
102
RTVSPost2010PropOp39
 70
     1
102
RTVSPost2010Prop40
 90
        0
102
RTVSPost2010PropOp40
 70
     1
102
RTVSPost2010Prop41ColorIndex
 90
       18
102
RTVSPost2010Prop41ColorRGB
 90
        0
102
RTVSPost2010PropOp41
 70
     1
102
RTVSPost2010Prop42
 90
       50
102
RTVSPost2010PropOp42
 70
     1
102
RTVSPost2010Prop43
 90
        3
102
RTVSPost2010PropOp43
 70
     1
102
RTVSPost2010Prop44ColorIndex
 90
        5
102
RTVSPost2010Prop44ColorRGB
 90
      255
102
RTVSPost2010PropOp44
 70
     1
102
RTVSPost2010Prop45
280
     0
102
RTVSPost2010PropOp45
 70
     1
102
RTVSPost2010Prop46
 90
       50
102
RTVSPost2010PropOp46
 70
     1
102
RTVSPost2010Prop47
 90
       50
102
RTVSPost2010PropOp47
 70
     1
102
RTVSPost2010Prop48
 90
       50
102
RTVSPost2010PropOp48
 70
     1
102
RTVSPost2010Prop49
280
     0
102
RTVSPost2010PropOp49
 70
     1
102
RTVSPost2010Prop50
 90
       50
102
RTVSPost2010PropOp50
 70
     1
102
RTVSPost2010Prop51ColorIndex
 90
      256
102
RTVSPost2010Prop51ColorRGB
 90
-16777216
102
RTVSPost2010PropOp51
 70
     0
102
RTVSPost2010Prop52
140
1.0
102
RTVSPost2010PropOp52
 70
     0
102
RTVSPost2010Prop53
 90
        2
102
RTVSPost2010PropOp53
 70
     1
102
RTVSPost2010Prop54
  1
strokes_ogs.tif
102
RTVSPost2010PropOp54
 70
     1
102
RTVSPost2010Prop55
280
     0
102
RTVSPost2010PropOp55
 70
     1
102
RTVSPost2010Prop56
140
1.0
102
RTVSPost2010PropOp56
 70
     1
102
RTVSPost2010Prop57
140
1.0
102
RTVSPost2010PropOp57
 70
     1
102
RTVSPropertyOp0
 70
     1
102
RTVSPropertyOp1
 70
     1
102
RTVSPropertyOp2
 70
     1
102
RTVSPropertyOp3
 70
     1
102
RTVSPropertyOp4
 70
     1
102
RTVSPropertyOp5
 70
     1
102
RTVSPropertyOp6
 70
     1
102
RTVSPropertyOp7
 70
     1
102
RTVSPropertyOp8
 70
     1
102
RTVSPropertyOp9
 70
     1
102
RTVSPropertyOp10
 70
     1
102
RTVSPropertyOp11
 70
     1
102
RTVSPropertyOp12
 70
     1
102
RTVSPropertyOp13
 70
     1
102
RTVSPropertyOp14
 70
     1
102
RTVSPropertyOp15
 70
     1
102
RTVSPropertyOp16
 70
     1
102
RTVSPropertyOp17
 70
     1
102
RTVSPropertyOp18
 70
     1
102
RTVSPropertyOp19
 70
     1
102
RTVSPropertyOp20
 70
     1
102
RTVSPropertyOp21
 70
     1
102
RTVSPropertyOp22
 70
     1
102
RTVSPropertyOp23
 70
     1
102
RTVSPropertyOp24
 70
     1
102
RTVSPropertyOp25
 70
     1
102
RTVSPropertyOp26
 70
     1
102
RTVSPropertyOp27
 70
     1
102
RTVSPropertyOp28
 70
     1
102
RTVSPropertyOp29
 70
     1
102
RTVSPropertyOp30
 70
     1
102
RTVSPropertyOp31
 70
     1
102
RTVSPropertyOp32
 70
     1
102
RTVSPropertyOp33
 70
     1
102
RTVSPropertyOp34
 70
     1
102
RTVSPropertyOp35
 70
     1
102
RTVSPropertyOp36
 70
     1
102
RTVSPropertyOp37
 70
     1
102
RTVSPropertyOp38
 70
     1
102
RTVSPropertyOp39
 70
     1
102
RTVSPropertyOp40
 70
     1
102
RTVSPropertyOp41
 70
     1
102
RTVSPropertyOp42
 70
     1
102
RTVSPropertyOp43
 70
     1
102
RTVSPropertyOp44
 70
     1
102
RTVSPropertyOp45
 70
     1
102
RTVSPropertyOp46
 70
     1
102
RTVSPropertyOp47
 70
     1
102
RTVSPropertyOp48
 70
     1
102
RTVSPropertyOp49
 70
     1
102
RTVSPropertyOp50
 70
     1
102
RTVSPropertyOp51
 70
     0
102
RTVSPropertyOp52
 70
     0
102
RTVSPropertyOp53
 70
     1
102
RTVSPropertyOp54
 70
     1
102
RTVSPropertyOp55
 70
     1
102
RTVSPropertyOp56
 70
     1
102
RTVSPropertyOp57
 70
     1
102
RTVSPropertyOp58
 70
     1
102
RTVSPropertyOp59
 70
     1
102
RTVSPropertyOp60
 70
     1
102
RTVSPropertyOp61
 70
     1
102
RTVSPropertyOp62
 70
     1
  0
XRECORD
  5
99AF
102
{ACAD_REACTORS
330
99AE
102
}
330
99AE
100
AcDbXrecord
280
     1
102
RTVSPost2010Prop28
280
     0
102
RTVSPost2010PropOp28
 70
     1
102
RTVSPost2010Prop29
280
     1
102
RTVSPost2010PropOp29
 70
     1
102
RTVSPost2010Prop30
280
     1
102
RTVSPost2010PropOp30
 70
     1
102
RTVSPost2010Prop31
280
     0
102
RTVSPost2010PropOp31
 70
     1
102
RTVSPost2010Prop32
280
     0
102
RTVSPost2010PropOp32
 70
     1
102
RTVSPost2010Prop33
280
     0
102
RTVSPost2010PropOp33
 70
     1
102
RTVSPost2010Prop34
280
     0
102
RTVSPost2010PropOp34
 70
     1
102
RTVSPost2010Prop35
280
     0
102
RTVSPost2010PropOp35
 70
     1
102
RTVSPost2010Prop36
280
     0
102
RTVSPost2010PropOp36
 70
     1
102
RTVSPost2010Prop37
 90
       50
102
RTVSPost2010PropOp37
 70
     1
102
RTVSPost2010Prop38
140
0.0
102
RTVSPost2010PropOp38
 70
     1
102
RTVSPost2010Prop39
140
1.0
102
RTVSPost2010PropOp39
 70
     1
102
RTVSPost2010Prop40
 90
        0
102
RTVSPost2010PropOp40
 70
     1
102
RTVSPost2010Prop41ColorIndex
 90
       18
102
RTVSPost2010Prop41ColorRGB
 90
        0
102
RTVSPost2010PropOp41
 70
     1
102
RTVSPost2010Prop42
 90
       50
102
RTVSPost2010PropOp42
 70
     1
102
RTVSPost2010Prop43
 90
        3
102
RTVSPost2010PropOp43
 70
     1
102
RTVSPost2010Prop44ColorIndex
 90
        5
102
RTVSPost2010Prop44ColorRGB
 90
      255
102
RTVSPost2010PropOp44
 70
     1
102
RTVSPost2010Prop45
280
     0
102
RTVSPost2010PropOp45
 70
     1
102
RTVSPost2010Prop46
 90
       50
102
RTVSPost2010PropOp46
 70
     1
102
RTVSPost2010Prop47
 90
       50
102
RTVSPost2010PropOp47
 70
     1
102
RTVSPost2010Prop48
 90
       50
102
RTVSPost2010PropOp48
 70
     1
102
RTVSPost2010Prop49
280
     0
102
RTVSPost2010PropOp49
 70
     1
102
RTVSPost2010Prop50
 90
       50
102
RTVSPost2010PropOp50
 70
     1
102
RTVSPost2010Prop51ColorIndex
 90
      256
102
RTVSPost2010Prop51ColorRGB
 90
-16777216
102
RTVSPost2010PropOp51
 70
     0
102
RTVSPost2010Prop52
140
1.0
102
RTVSPost2010PropOp52
 70
     0
102
RTVSPost2010Prop53
 90
        2
102
RTVSPost2010PropOp53
 70
     1
102
RTVSPost2010Prop54
  1
strokes_ogs.tif
102
RTVSPost2010PropOp54
 70
     1
102
RTVSPost2010Prop55
280
     0
102
RTVSPost2010PropOp55
 70
     1
102
RTVSPost2010Prop56
140
1.0
102
RTVSPost2010PropOp56
 70
     1
102
RTVSPost2010Prop57
140
1.0
102
RTVSPost2010PropOp57
 70
     1
102
RTVSPropertyOp0
 70
     1
102
RTVSPropertyOp1
 70
     1
102
RTVSPropertyOp2
 70
     1
102
RTVSPropertyOp3
 70
     1
102
RTVSPropertyOp4
 70
     1
102
RTVSPropertyOp5
 70
     1
102
RTVSPropertyOp6
 70
     1
102
RTVSPropertyOp7
 70
     1
102
RTVSPropertyOp8
 70
     1
102
RTVSPropertyOp9
 70
     1
102
RTVSPropertyOp10
 70
     1
102
RTVSPropertyOp11
 70
     1
102
RTVSPropertyOp12
 70
     1
102
RTVSPropertyOp13
 70
     1
102
RTVSPropertyOp14
 70
     1
102
RTVSPropertyOp15
 70
     1
102
RTVSPropertyOp16
 70
     1
102
RTVSPropertyOp17
 70
     1
102
RTVSPropertyOp18
 70
     1
102
RTVSPropertyOp19
 70
     1
102
RTVSPropertyOp20
 70
     1
102
RTVSPropertyOp21
 70
     1
102
RTVSPropertyOp22
 70
     1
102
RTVSPropertyOp23
 70
     1
102
RTVSPropertyOp24
 70
     1
102
RTVSPropertyOp25
 70
     1
102
RTVSPropertyOp26
 70
     1
102
RTVSPropertyOp27
 70
     1
102
RTVSPropertyOp28
 70
     1
102
RTVSPropertyOp29
 70
     1
102
RTVSPropertyOp30
 70
     1
102
RTVSPropertyOp31
 70
     1
102
RTVSPropertyOp32
 70
     1
102
RTVSPropertyOp33
 70
     1
102
RTVSPropertyOp34
 70
     1
102
RTVSPropertyOp35
 70
     1
102
RTVSPropertyOp36
 70
     1
102
RTVSPropertyOp37
 70
     1
102
RTVSPropertyOp38
 70
     1
102
RTVSPropertyOp39
 70
     1
102
RTVSPropertyOp40
 70
     1
102
RTVSPropertyOp41
 70
     1
102
RTVSPropertyOp42
 70
     1
102
RTVSPropertyOp43
 70
     1
102
RTVSPropertyOp44
 70
     1
102
RTVSPropertyOp45
 70
     1
102
RTVSPropertyOp46
 70
     1
102
RTVSPropertyOp47
 70
     1
102
RTVSPropertyOp48
 70
     1
102
RTVSPropertyOp49
 70
     1
102
RTVSPropertyOp50
 70
     1
102
RTVSPropertyOp51
 70
     0
102
RTVSPropertyOp52
 70
     0
102
RTVSPropertyOp53
 70
     1
102
RTVSPropertyOp54
 70
     1
102
RTVSPropertyOp55
 70
     1
102
RTVSPropertyOp56
 70
     1
102
RTVSPropertyOp57
 70
     1
102
RTVSPropertyOp58
 70
     1
102
RTVSPropertyOp59
 70
     1
102
RTVSPropertyOp60
 70
     1
102
RTVSPropertyOp61
 70
     1
102
RTVSPropertyOp62
 70
     1
  0
XRECORD
  5
99B1
102
{ACAD_REACTORS
330
99B0
102
}
330
99B0
100
AcDbXrecord
280
     1
102
RTVSPost2010Prop28
280
     0
102
RTVSPost2010PropOp28
 70
     1
102
RTVSPost2010Prop29
280
     1
102
RTVSPost2010PropOp29
 70
     1
102
RTVSPost2010Prop30
280
     1
102
RTVSPost2010PropOp30
 70
     1
102
RTVSPost2010Prop31
280
     0
102
RTVSPost2010PropOp31
 70
     1
102
RTVSPost2010Prop32
280
     0
102
RTVSPost2010PropOp32
 70
     1
102
RTVSPost2010Prop33
280
     0
102
RTVSPost2010PropOp33
 70
     1
102
RTVSPost2010Prop34
280
     0
102
RTVSPost2010PropOp34
 70
     1
102
RTVSPost2010Prop35
280
     0
102
RTVSPost2010PropOp35
 70
     1
102
RTVSPost2010Prop36
280
     0
102
RTVSPost2010PropOp36
 70
     1
102
RTVSPost2010Prop37
 90
       50
102
RTVSPost2010PropOp37
 70
     1
102
RTVSPost2010Prop38
140
0.0
102
RTVSPost2010PropOp38
 70
     1
102
RTVSPost2010Prop39
140
1.0
102
RTVSPost2010PropOp39
 70
     1
102
RTVSPost2010Prop40
 90
        0
102
RTVSPost2010PropOp40
 70
     1
102
RTVSPost2010Prop41ColorIndex
 90
       18
102
RTVSPost2010Prop41ColorRGB
 90
        0
102
RTVSPost2010PropOp41
 70
     1
102
RTVSPost2010Prop42
 90
       50
102
RTVSPost2010PropOp42
 70
     1
102
RTVSPost2010Prop43
 90
        3
102
RTVSPost2010PropOp43
 70
     1
102
RTVSPost2010Prop44ColorIndex
 90
        5
102
RTVSPost2010Prop44ColorRGB
 90
      255
102
RTVSPost2010PropOp44
 70
     1
102
RTVSPost2010Prop45
280
     0
102
RTVSPost2010PropOp45
 70
     1
102
RTVSPost2010Prop46
 90
       50
102
RTVSPost2010PropOp46
 70
     1
102
RTVSPost2010Prop47
 90
       50
102
RTVSPost2010PropOp47
 70
     1
102
RTVSPost2010Prop48
 90
       50
102
RTVSPost2010PropOp48
 70
     1
102
RTVSPost2010Prop49
280
     0
102
RTVSPost2010PropOp49
 70
     1
102
RTVSPost2010Prop50
 90
       50
102
RTVSPost2010PropOp50
 70
     1
102
RTVSPost2010Prop51ColorIndex
 90
      256
102
RTVSPost2010Prop51ColorRGB
 90
-16777216
102
RTVSPost2010PropOp51
 70
     0
102
RTVSPost2010Prop52
140
1.0
102
RTVSPost2010PropOp52
 70
     0
102
RTVSPost2010Prop53
 90
        2
102
RTVSPost2010PropOp53
 70
     1
102
RTVSPost2010Prop54
  1
strokes_ogs.tif
102
RTVSPost2010PropOp54
 70
     1
102
RTVSPost2010Prop55
280
     0
102
RTVSPost2010PropOp55
 70
     1
102
RTVSPost2010Prop56
140
1.0
102
RTVSPost2010PropOp56
 70
     1
102
RTVSPost2010Prop57
140
1.0
102
RTVSPost2010PropOp57
 70
     1
102
RTVSPropertyOp0
 70
     1
102
RTVSPropertyOp1
 70
     1
102
RTVSPropertyOp2
 70
     1
102
RTVSPropertyOp3
 70
     1
102
RTVSPropertyOp4
 70
     1
102
RTVSPropertyOp5
 70
     1
102
RTVSPropertyOp6
 70
     1
102
RTVSPropertyOp7
 70
     1
102
RTVSPropertyOp8
 70
     1
102
RTVSPropertyOp9
 70
     1
102
RTVSPropertyOp10
 70
     1
102
RTVSPropertyOp11
 70
     1
102
RTVSPropertyOp12
 70
     1
102
RTVSPropertyOp13
 70
     1
102
RTVSPropertyOp14
 70
     1
102
RTVSPropertyOp15
 70
     1
102
RTVSPropertyOp16
 70
     1
102
RTVSPropertyOp17
 70
     1
102
RTVSPropertyOp18
 70
     1
102
RTVSPropertyOp19
 70
     1
102
RTVSPropertyOp20
 70
     1
102
RTVSPropertyOp21
 70
     1
102
RTVSPropertyOp22
 70
     1
102
RTVSPropertyOp23
 70
     1
102
RTVSPropertyOp24
 70
     1
102
RTVSPropertyOp25
 70
     1
102
RTVSPropertyOp26
 70
     1
102
RTVSPropertyOp27
 70
     1
102
RTVSPropertyOp28
 70
     1
102
RTVSPropertyOp29
 70
     1
102
RTVSPropertyOp30
 70
     1
102
RTVSPropertyOp31
 70
     1
102
RTVSPropertyOp32
 70
     1
102
RTVSPropertyOp33
 70
     1
102
RTVSPropertyOp34
 70
     1
102
RTVSPropertyOp35
 70
     1
102
RTVSPropertyOp36
 70
     1
102
RTVSPropertyOp37
 70
     1
102
RTVSPropertyOp38
 70
     1
102
RTVSPropertyOp39
 70
     1
102
RTVSPropertyOp40
 70
     1
102
RTVSPropertyOp41
 70
     1
102
RTVSPropertyOp42
 70
     1
102
RTVSPropertyOp43
 70
     1
102
RTVSPropertyOp44
 70
     1
102
RTVSPropertyOp45
 70
     1
102
RTVSPropertyOp46
 70
     1
102
RTVSPropertyOp47
 70
     1
102
RTVSPropertyOp48
 70
     1
102
RTVSPropertyOp49
 70
     1
102
RTVSPropertyOp50
 70
     1
102
RTVSPropertyOp51
 70
     0
102
RTVSPropertyOp52
 70
     0
102
RTVSPropertyOp53
 70
     1
102
RTVSPropertyOp54
 70
     1
102
RTVSPropertyOp55
 70
     1
102
RTVSPropertyOp56
 70
     1
102
RTVSPropertyOp57
 70
     1
102
RTVSPropertyOp58
 70
     1
102
RTVSPropertyOp59
 70
     1
102
RTVSPropertyOp60
 70
     1
102
RTVSPropertyOp61
 70
     1
102
RTVSPropertyOp62
 70
     1
  0
XRECORD
  5
99B3
102
{ACAD_REACTORS
330
99B2
102
}
330
99B2
100
AcDbXrecord
280
     1
102
RTVSPost2010Prop28
280
     0
102
RTVSPost2010PropOp28
 70
     1
102
RTVSPost2010Prop29
280
     1
102
RTVSPost2010PropOp29
 70
     1
102
RTVSPost2010Prop30
280
     1
102
RTVSPost2010PropOp30
 70
     1
102
RTVSPost2010Prop31
280
     0
102
RTVSPost2010PropOp31
 70
     1
102
RTVSPost2010Prop32
280
     0
102
RTVSPost2010PropOp32
 70
     1
102
RTVSPost2010Prop33
280
     0
102
RTVSPost2010PropOp33
 70
     1
102
RTVSPost2010Prop34
280
     0
102
RTVSPost2010PropOp34
 70
     1
102
RTVSPost2010Prop35
280
     0
102
RTVSPost2010PropOp35
 70
     1
102
RTVSPost2010Prop36
280
     0
102
RTVSPost2010PropOp36
 70
     1
102
RTVSPost2010Prop37
 90
       50
102
RTVSPost2010PropOp37
 70
     1
102
RTVSPost2010Prop38
140
0.0
102
RTVSPost2010PropOp38
 70
     1
102
RTVSPost2010Prop39
140
1.0
102
RTVSPost2010PropOp39
 70
     1
102
RTVSPost2010Prop40
 90
        0
102
RTVSPost2010PropOp40
 70
     1
102
RTVSPost2010Prop41ColorIndex
 90
       18
102
RTVSPost2010Prop41ColorRGB
 90
        0
102
RTVSPost2010PropOp41
 70
     1
102
RTVSPost2010Prop42
 90
       50
102
RTVSPost2010PropOp42
 70
     1
102
RTVSPost2010Prop43
 90
        3
102
RTVSPost2010PropOp43
 70
     1
102
RTVSPost2010Prop44ColorIndex
 90
        5
102
RTVSPost2010Prop44ColorRGB
 90
      255
102
RTVSPost2010PropOp44
 70
     1
102
RTVSPost2010Prop45
280
     0
102
RTVSPost2010PropOp45
 70
     1
102
RTVSPost2010Prop46
 90
       50
102
RTVSPost2010PropOp46
 70
     1
102
RTVSPost2010Prop47
 90
       50
102
RTVSPost2010PropOp47
 70
     1
102
RTVSPost2010Prop48
 90
       50
102
RTVSPost2010PropOp48
 70
     1
102
RTVSPost2010Prop49
280
     0
102
RTVSPost2010PropOp49
 70
     1
102
RTVSPost2010Prop50
 90
       50
102
RTVSPost2010PropOp50
 70
     1
102
RTVSPost2010Prop51ColorIndex
 90
      256
102
RTVSPost2010Prop51ColorRGB
 90
-16777216
102
RTVSPost2010PropOp51
 70
     0
102
RTVSPost2010Prop52
140
1.0
102
RTVSPost2010PropOp52
 70
     0
102
RTVSPost2010Prop53
 90
        2
102
RTVSPost2010PropOp53
 70
     1
102
RTVSPost2010Prop54
  1
strokes_ogs.tif
102
RTVSPost2010PropOp54
 70
     1
102
RTVSPost2010Prop55
280
     0
102
RTVSPost2010PropOp55
 70
     1
102
RTVSPost2010Prop56
140
1.0
102
RTVSPost2010PropOp56
 70
     1
102
RTVSPost2010Prop57
140
1.0
102
RTVSPost2010PropOp57
 70
     1
102
RTVSPropertyOp0
 70
     1
102
RTVSPropertyOp1
 70
     1
102
RTVSPropertyOp2
 70
     1
102
RTVSPropertyOp3
 70
     1
102
RTVSPropertyOp4
 70
     1
102
RTVSPropertyOp5
 70
     1
102
RTVSPropertyOp6
 70
     1
102
RTVSPropertyOp7
 70
     1
102
RTVSPropertyOp8
 70
     1
102
RTVSPropertyOp9
 70
     1
102
RTVSPropertyOp10
 70
     1
102
RTVSPropertyOp11
 70
     1
102
RTVSPropertyOp12
 70
     1
102
RTVSPropertyOp13
 70
     1
102
RTVSPropertyOp14
 70
     1
102
RTVSPropertyOp15
 70
     1
102
RTVSPropertyOp16
 70
     1
102
RTVSPropertyOp17
 70
     1
102
RTVSPropertyOp18
 70
     1
102
RTVSPropertyOp19
 70
     1
102
RTVSPropertyOp20
 70
     1
102
RTVSPropertyOp21
 70
     1
102
RTVSPropertyOp22
 70
     1
102
RTVSPropertyOp23
 70
     1
102
RTVSPropertyOp24
 70
     1
102
RTVSPropertyOp25
 70
     1
102
RTVSPropertyOp26
 70
     1
102
RTVSPropertyOp27
 70
     1
102
RTVSPropertyOp28
 70
     1
102
RTVSPropertyOp29
 70
     1
102
RTVSPropertyOp30
 70
     1
102
RTVSPropertyOp31
 70
     1
102
RTVSPropertyOp32
 70
     1
102
RTVSPropertyOp33
 70
     1
102
RTVSPropertyOp34
 70
     1
102
RTVSPropertyOp35
 70
     1
102
RTVSPropertyOp36
 70
     1
102
RTVSPropertyOp37
 70
     1
102
RTVSPropertyOp38
 70
     1
102
RTVSPropertyOp39
 70
     1
102
RTVSPropertyOp40
 70
     1
102
RTVSPropertyOp41
 70
     1
102
RTVSPropertyOp42
 70
     1
102
RTVSPropertyOp43
 70
     1
102
RTVSPropertyOp44
 70
     1
102
RTVSPropertyOp45
 70
     1
102
RTVSPropertyOp46
 70
     1
102
RTVSPropertyOp47
 70
     1
102
RTVSPropertyOp48
 70
     1
102
RTVSPropertyOp49
 70
     1
102
RTVSPropertyOp50
 70
     1
102
RTVSPropertyOp51
 70
     0
102
RTVSPropertyOp52
 70
     0
102
RTVSPropertyOp53
 70
     1
102
RTVSPropertyOp54
 70
     1
102
RTVSPropertyOp55
 70
     1
102
RTVSPropertyOp56
 70
     1
102
RTVSPropertyOp57
 70
     1
102
RTVSPropertyOp58
 70
     1
102
RTVSPropertyOp59
 70
     1
102
RTVSPropertyOp60
 70
     1
102
RTVSPropertyOp61
 70
     1
102
RTVSPropertyOp62
 70
     1
  0
XRECORD
  5
99BB
102
{ACAD_REACTORS
330
99BA
102
}
330
99BA
100
AcDbXrecord
280
     1
102
RTVSPost2010Prop28
280
     0
102
RTVSPost2010PropOp28
 70
     1
102
RTVSPost2010Prop29
280
     1
102
RTVSPost2010PropOp29
 70
     1
102
RTVSPost2010Prop30
280
     1
102
RTVSPost2010PropOp30
 70
     1
102
RTVSPost2010Prop31
280
     0
102
RTVSPost2010PropOp31
 70
     1
102
RTVSPost2010Prop32
280
     0
102
RTVSPost2010PropOp32
 70
     1
102
RTVSPost2010Prop33
280
     0
102
RTVSPost2010PropOp33
 70
     1
102
RTVSPost2010Prop34
280
     0
102
RTVSPost2010PropOp34
 70
     1
102
RTVSPost2010Prop35
280
     0
102
RTVSPost2010PropOp35
 70
     1
102
RTVSPost2010Prop36
280
     0
102
RTVSPost2010PropOp36
 70
     1
102
RTVSPost2010Prop37
 90
       50
102
RTVSPost2010PropOp37
 70
     1
102
RTVSPost2010Prop38
140
0.0
102
RTVSPost2010PropOp38
 70
     1
102
RTVSPost2010Prop39
140
1.0
102
RTVSPost2010PropOp39
 70
     1
102
RTVSPost2010Prop40
 90
        0
102
RTVSPost2010PropOp40
 70
     1
102
RTVSPost2010Prop41ColorIndex
 90
       18
102
RTVSPost2010Prop41ColorRGB
 90
        0
102
RTVSPost2010PropOp41
 70
     1
102
RTVSPost2010Prop42
 90
       50
102
RTVSPost2010PropOp42
 70
     1
102
RTVSPost2010Prop43
 90
        3
102
RTVSPost2010PropOp43
 70
     1
102
RTVSPost2010Prop44ColorIndex
 90
        5
102
RTVSPost2010Prop44ColorRGB
 90
      255
102
RTVSPost2010PropOp44
 70
     1
102
RTVSPost2010Prop45
280
     0
102
RTVSPost2010PropOp45
 70
     1
102
RTVSPost2010Prop46
 90
       50
102
RTVSPost2010PropOp46
 70
     1
102
RTVSPost2010Prop47
 90
       50
102
RTVSPost2010PropOp47
 70
     1
102
RTVSPost2010Prop48
 90
       50
102
RTVSPost2010PropOp48
 70
     1
102
RTVSPost2010Prop49
280
     0
102
RTVSPost2010PropOp49
 70
     1
102
RTVSPost2010Prop50
 90
       50
102
RTVSPost2010PropOp50
 70
     1
102
RTVSPost2010Prop51ColorIndex
 90
      256
102
RTVSPost2010Prop51ColorRGB
 90
-16777216
102
RTVSPost2010PropOp51
 70
     0
102
RTVSPost2010Prop52
140
1.0
102
RTVSPost2010PropOp52
 70
     0
102
RTVSPost2010Prop53
 90
        2
102
RTVSPost2010PropOp53
 70
     1
102
RTVSPost2010Prop54
  1
strokes_ogs.tif
102
RTVSPost2010PropOp54
 70
     1
102
RTVSPost2010Prop55
280
     0
102
RTVSPost2010PropOp55
 70
     1
102
RTVSPost2010Prop56
140
1.0
102
RTVSPost2010PropOp56
 70
     1
102
RTVSPost2010Prop57
140
1.0
102
RTVSPost2010PropOp57
 70
     1
102
RTVSPropertyOp0
 70
     1
102
RTVSPropertyOp1
 70
     1
102
RTVSPropertyOp2
 70
     1
102
RTVSPropertyOp3
 70
     1
102
RTVSPropertyOp4
 70
     1
102
RTVSPropertyOp5
 70
     1
102
RTVSPropertyOp6
 70
     1
102
RTVSPropertyOp7
 70
     1
102
RTVSPropertyOp8
 70
     1
102
RTVSPropertyOp9
 70
     1
102
RTVSPropertyOp10
 70
     1
102
RTVSPropertyOp11
 70
     1
102
RTVSPropertyOp12
 70
     1
102
RTVSPropertyOp13
 70
     1
102
RTVSPropertyOp14
 70
     1
102
RTVSPropertyOp15
 70
     1
102
RTVSPropertyOp16
 70
     1
102
RTVSPropertyOp17
 70
     1
102
RTVSPropertyOp18
 70
     1
102
RTVSPropertyOp19
 70
     1
102
RTVSPropertyOp20
 70
     1
102
RTVSPropertyOp21
 70
     1
102
RTVSPropertyOp22
 70
     1
102
RTVSPropertyOp23
 70
     1
102
RTVSPropertyOp24
 70
     1
102
RTVSPropertyOp25
 70
     1
102
RTVSPropertyOp26
 70
     1
102
RTVSPropertyOp27
 70
     1
102
RTVSPropertyOp28
 70
     1
102
RTVSPropertyOp29
 70
     1
102
RTVSPropertyOp30
 70
     1
102
RTVSPropertyOp31
 70
     1
102
RTVSPropertyOp32
 70
     1
102
RTVSPropertyOp33
 70
     1
102
RTVSPropertyOp34
 70
     1
102
RTVSPropertyOp35
 70
     1
102
RTVSPropertyOp36
 70
     1
102
RTVSPropertyOp37
 70
     1
102
RTVSPropertyOp38
 70
     1
102
RTVSPropertyOp39
 70
     1
102
RTVSPropertyOp40
 70
     1
102
RTVSPropertyOp41
 70
     1
102
RTVSPropertyOp42
 70
     1
102
RTVSPropertyOp43
 70
     1
102
RTVSPropertyOp44
 70
     1
102
RTVSPropertyOp45
 70
     1
102
RTVSPropertyOp46
 70
     1
102
RTVSPropertyOp47
 70
     1
102
RTVSPropertyOp48
 70
     1
102
RTVSPropertyOp49
 70
     1
102
RTVSPropertyOp50
 70
     1
102
RTVSPropertyOp51
 70
     0
102
RTVSPropertyOp52
 70
     0
102
RTVSPropertyOp53
 70
     1
102
RTVSPropertyOp54
 70
     1
102
RTVSPropertyOp55
 70
     1
102
RTVSPropertyOp56
 70
     1
102
RTVSPropertyOp57
 70
     1
102
RTVSPropertyOp58
 70
     1
102
RTVSPropertyOp59
 70
     1
102
RTVSPropertyOp60
 70
     1
102
RTVSPropertyOp61
 70
     1
102
RTVSPropertyOp62
 70
     1
  0
XRECORD
  5
99D7
102
{ACAD_REACTORS
330
99D6
102
}
330
99D6
100
AcDbXrecord
280
     1
102
RTVSPost2010Prop28
280
     0
102
RTVSPost2010PropOp28
 70
     0
102
RTVSPost2010Prop29
280
     1
102
RTVSPost2010PropOp29
 70
     0
102
RTVSPost2010Prop30
280
     1
102
RTVSPost2010PropOp30
 70
     0
102
RTVSPost2010Prop31
280
     0
102
RTVSPost2010PropOp31
 70
     0
102
RTVSPost2010Prop32
280
     0
102
RTVSPost2010PropOp32
 70
     0
102
RTVSPost2010Prop33
280
     0
102
RTVSPost2010PropOp33
 70
     0
102
RTVSPost2010Prop34
280
     0
102
RTVSPost2010PropOp34
 70
     0
102
RTVSPost2010Prop35
280
     0
102
RTVSPost2010PropOp35
 70
     0
102
RTVSPost2010Prop36
280
     0
102
RTVSPost2010PropOp36
 70
     0
102
RTVSPost2010Prop37
 90
       50
102
RTVSPost2010PropOp37
 70
     0
102
RTVSPost2010Prop38
140
0.0
102
RTVSPost2010PropOp38
 70
     0
102
RTVSPost2010Prop39
140
1.0
102
RTVSPost2010PropOp39
 70
     0
102
RTVSPost2010Prop40
 90
        0
102
RTVSPost2010PropOp40
 70
     0
102
RTVSPost2010Prop41ColorIndex
 90
       18
102
RTVSPost2010Prop41ColorRGB
 90
        0
102
RTVSPost2010PropOp41
 70
     0
102
RTVSPost2010Prop42
 90
       50
102
RTVSPost2010PropOp42
 70
     0
102
RTVSPost2010Prop43
 90
        3
102
RTVSPost2010PropOp43
 70
     0
102
RTVSPost2010Prop44ColorIndex
 90
        5
102
RTVSPost2010Prop44ColorRGB
 90
      255
102
RTVSPost2010PropOp44
 70
     0
102
RTVSPost2010Prop45
280
     0
102
RTVSPost2010PropOp45
 70
     0
102
RTVSPost2010Prop46
 90
       50
102
RTVSPost2010PropOp46
 70
     0
102
RTVSPost2010Prop47
 90
       50
102
RTVSPost2010PropOp47
 70
     0
102
RTVSPost2010Prop48
 90
       50
102
RTVSPost2010PropOp48
 70
     0
102
RTVSPost2010Prop49
280
     0
102
RTVSPost2010PropOp49
 70
     0
102
RTVSPost2010Prop50
 90
       50
102
RTVSPost2010PropOp50
 70
     0
102
RTVSPost2010Prop51ColorIndex
 90
      256
102
RTVSPost2010Prop51ColorRGB
 90
-16777216
102
RTVSPost2010PropOp51
 70
     0
102
RTVSPost2010Prop52
140
1.0
102
RTVSPost2010PropOp52
 70
     0
102
RTVSPost2010Prop53
 90
        2
102
RTVSPost2010PropOp53
 70
     0
102
RTVSPost2010Prop54
  1
strokes_ogs.tif
102
RTVSPost2010PropOp54
 70
     0
102
RTVSPost2010Prop55
280
     0
102
RTVSPost2010PropOp55
 70
     0
102
RTVSPost2010Prop56
140
1.0
102
RTVSPost2010PropOp56
 70
     0
102
RTVSPost2010Prop57
140
1.0
102
RTVSPost2010PropOp57
 70
     0
102
RTVSPropertyOp0
 70
     0
102
RTVSPropertyOp1
 70
     0
102
RTVSPropertyOp2
 70
     0
102
RTVSPropertyOp3
 70
     0
102
RTVSPropertyOp4
 70
     0
102
RTVSPropertyOp5
 70
     0
102
RTVSPropertyOp6
 70
     0
102
RTVSPropertyOp7
 70
     0
102
RTVSPropertyOp8
 70
     0
102
RTVSPropertyOp9
 70
     0
102
RTVSPropertyOp10
 70
     0
102
RTVSPropertyOp11
 70
     0
102
RTVSPropertyOp12
 70
     0
102
RTVSPropertyOp13
 70
     0
102
RTVSPropertyOp14
 70
     2
102
RTVSPropertyOp15
 70
     0
102
RTVSPropertyOp16
 70
     0
102
RTVSPropertyOp17
 70
     0
102
RTVSPropertyOp18
 70
     0
102
RTVSPropertyOp19
 70
     0
102
RTVSPropertyOp20
 70
     0
102
RTVSPropertyOp21
 70
     0
102
RTVSPropertyOp22
 70
     0
102
RTVSPropertyOp23
 70
     0
102
RTVSPropertyOp24
 70
     0
102
RTVSPropertyOp25
 70
     0
102
RTVSPropertyOp26
 70
     0
102
RTVSPropertyOp27
 70
     0
102
RTVSPropertyOp28
 70
     0
102
RTVSPropertyOp29
 70
     0
102
RTVSPropertyOp30
 70
     0
102
RTVSPropertyOp31
 70
     0
102
RTVSPropertyOp32
 70
     0
102
RTVSPropertyOp33
 70
     0
102
RTVSPropertyOp34
 70
     0
102
RTVSPropertyOp35
 70
     0
102
RTVSPropertyOp36
 70
     0
102
RTVSPropertyOp37
 70
     0
102
RTVSPropertyOp38
 70
     0
102
RTVSPropertyOp39
 70
     0
102
RTVSPropertyOp40
 70
     0
102
RTVSPropertyOp41
 70
     0
102
RTVSPropertyOp42
 70
     0
102
RTVSPropertyOp43
 70
     0
102
RTVSPropertyOp44
 70
     0
102
RTVSPropertyOp45
 70
     0
102
RTVSPropertyOp46
 70
     0
102
RTVSPropertyOp47
 70
     0
102
RTVSPropertyOp48
 70
     0
102
RTVSPropertyOp49
 70
     0
102
RTVSPropertyOp50
 70
     0
102
RTVSPropertyOp51
 70
     0
102
RTVSPropertyOp52
 70
     0
102
RTVSPropertyOp53
 70
     0
102
RTVSPropertyOp54
 70
     0
102
RTVSPropertyOp55
 70
     0
102
RTVSPropertyOp56
 70
     0
102
RTVSPropertyOp57
 70
     0
102
RTVSPropertyOp58
 70
     1
102
RTVSPropertyOp59
 70
     1
102
RTVSPropertyOp60
 70
     1
102
RTVSPropertyOp61
 70
     1
102
RTVSPropertyOp62
 70
     1
  0
XRECORD
  5
99C7
102
{ACAD_REACTORS
330
99C6
102
}
330
99C6
100
AcDbXrecord
280
     1
102
RTVSPost2010Prop28
280
     0
102
RTVSPost2010PropOp28
 70
     1
102
RTVSPost2010Prop29
280
     1
102
RTVSPost2010PropOp29
 70
     1
102
RTVSPost2010Prop30
280
     1
102
RTVSPost2010PropOp30
 70
     1
102
RTVSPost2010Prop31
280
     0
102
RTVSPost2010PropOp31
 70
     1
102
RTVSPost2010Prop32
280
     0
102
RTVSPost2010PropOp32
 70
     1
102
RTVSPost2010Prop33
280
     0
102
RTVSPost2010PropOp33
 70
     1
102
RTVSPost2010Prop34
280
     0
102
RTVSPost2010PropOp34
 70
     1
102
RTVSPost2010Prop35
280
     0
102
RTVSPost2010PropOp35
 70
     1
102
RTVSPost2010Prop36
280
     0
102
RTVSPost2010PropOp36
 70
     1
102
RTVSPost2010Prop37
 90
       50
102
RTVSPost2010PropOp37
 70
     1
102
RTVSPost2010Prop38
140
0.0
102
RTVSPost2010PropOp38
 70
     1
102
RTVSPost2010Prop39
140
1.0
102
RTVSPost2010PropOp39
 70
     1
102
RTVSPost2010Prop40
 90
        0
102
RTVSPost2010PropOp40
 70
     1
102
RTVSPost2010Prop41ColorIndex
 90
       18
102
RTVSPost2010Prop41ColorRGB
 90
        0
102
RTVSPost2010PropOp41
 70
     1
102
RTVSPost2010Prop42
 90
       50
102
RTVSPost2010PropOp42
 70
     1
102
RTVSPost2010Prop43
 90
        3
102
RTVSPost2010PropOp43
 70
     1
102
RTVSPost2010Prop44ColorIndex
 90
        5
102
RTVSPost2010Prop44ColorRGB
 90
      255
102
RTVSPost2010PropOp44
 70
     1
102
RTVSPost2010Prop45
280
     0
102
RTVSPost2010PropOp45
 70
     1
102
RTVSPost2010Prop46
 90
       50
102
RTVSPost2010PropOp46
 70
     1
102
RTVSPost2010Prop47
 90
       50
102
RTVSPost2010PropOp47
 70
     1
102
RTVSPost2010Prop48
 90
       50
102
RTVSPost2010PropOp48
 70
     1
102
RTVSPost2010Prop49
280
     0
102
RTVSPost2010PropOp49
 70
     1
102
RTVSPost2010Prop50
 90
       50
102
RTVSPost2010PropOp50
 70
     1
102
RTVSPost2010Prop51ColorIndex
 90
      256
102
RTVSPost2010Prop51ColorRGB
 90
-16777216
102
RTVSPost2010PropOp51
 70
     0
102
RTVSPost2010Prop52
140
1.0
102
RTVSPost2010PropOp52
 70
     0
102
RTVSPost2010Prop53
 90
        2
102
RTVSPost2010PropOp53
 70
     1
102
RTVSPost2010Prop54
  1
strokes_ogs.tif
102
RTVSPost2010PropOp54
 70
     1
102
RTVSPost2010Prop55
280
     0
102
RTVSPost2010PropOp55
 70
     1
102
RTVSPost2010Prop56
140
1.0
102
RTVSPost2010PropOp56
 70
     1
102
RTVSPost2010Prop57
140
1.0
102
RTVSPost2010PropOp57
 70
     1
102
RTVSPropertyOp0
 70
     1
102
RTVSPropertyOp1
 70
     1
102
RTVSPropertyOp2
 70
     1
102
RTVSPropertyOp3
 70
     1
102
RTVSPropertyOp4
 70
     1
102
RTVSPropertyOp5
 70
     1
102
RTVSPropertyOp6
 70
     1
102
RTVSPropertyOp7
 70
     1
102
RTVSPropertyOp8
 70
     1
102
RTVSPropertyOp9
 70
     1
102
RTVSPropertyOp10
 70
     1
102
RTVSPropertyOp11
 70
     1
102
RTVSPropertyOp12
 70
     1
102
RTVSPropertyOp13
 70
     1
102
RTVSPropertyOp14
 70
     1
102
RTVSPropertyOp15
 70
     1
102
RTVSPropertyOp16
 70
     1
102
RTVSPropertyOp17
 70
     1
102
RTVSPropertyOp18
 70
     1
102
RTVSPropertyOp19
 70
     1
102
RTVSPropertyOp20
 70
     1
102
RTVSPropertyOp21
 70
     1
102
RTVSPropertyOp22
 70
     1
102
RTVSPropertyOp23
 70
     1
102
RTVSPropertyOp24
 70
     1
102
RTVSPropertyOp25
 70
     1
102
RTVSPropertyOp26
 70
     1
102
RTVSPropertyOp27
 70
     1
102
RTVSPropertyOp28
 70
     1
102
RTVSPropertyOp29
 70
     1
102
RTVSPropertyOp30
 70
     1
102
RTVSPropertyOp31
 70
     1
102
RTVSPropertyOp32
 70
     1
102
RTVSPropertyOp33
 70
     1
102
RTVSPropertyOp34
 70
     1
102
RTVSPropertyOp35
 70
     1
102
RTVSPropertyOp36
 70
     1
102
RTVSPropertyOp37
 70
     1
102
RTVSPropertyOp38
 70
     1
102
RTVSPropertyOp39
 70
     1
102
RTVSPropertyOp40
 70
     1
102
RTVSPropertyOp41
 70
     1
102
RTVSPropertyOp42
 70
     1
102
RTVSPropertyOp43
 70
     1
102
RTVSPropertyOp44
 70
     1
102
RTVSPropertyOp45
 70
     1
102
RTVSPropertyOp46
 70
     1
102
RTVSPropertyOp47
 70
     1
102
RTVSPropertyOp48
 70
     1
102
RTVSPropertyOp49
 70
     1
102
RTVSPropertyOp50
 70
     1
102
RTVSPropertyOp51
 70
     0
102
RTVSPropertyOp52
 70
     0
102
RTVSPropertyOp53
 70
     1
102
RTVSPropertyOp54
 70
     1
102
RTVSPropertyOp55
 70
     1
102
RTVSPropertyOp56
 70
     1
102
RTVSPropertyOp57
 70
     1
102
RTVSPropertyOp58
 70
     1
102
RTVSPropertyOp59
 70
     1
102
RTVSPropertyOp60
 70
     1
102
RTVSPropertyOp61
 70
     1
102
RTVSPropertyOp62
 70
     1
  0
XRECORD
  5
99D9
102
{ACAD_REACTORS
330
99D8
102
}
330
99D8
100
AcDbXrecord
280
     1
102
RTVSPost2010Prop28
280
     0
102
RTVSPost2010PropOp28
 70
     0
102
RTVSPost2010Prop29
280
     1
102
RTVSPost2010PropOp29
 70
     0
102
RTVSPost2010Prop30
280
     1
102
RTVSPost2010PropOp30
 70
     0
102
RTVSPost2010Prop31
280
     0
102
RTVSPost2010PropOp31
 70
     0
102
RTVSPost2010Prop32
280
     0
102
RTVSPost2010PropOp32
 70
     0
102
RTVSPost2010Prop33
280
     0
102
RTVSPost2010PropOp33
 70
     0
102
RTVSPost2010Prop34
280
     0
102
RTVSPost2010PropOp34
 70
     0
102
RTVSPost2010Prop35
280
     0
102
RTVSPost2010PropOp35
 70
     0
102
RTVSPost2010Prop36
280
     0
102
RTVSPost2010PropOp36
 70
     0
102
RTVSPost2010Prop37
 90
       50
102
RTVSPost2010PropOp37
 70
     0
102
RTVSPost2010Prop38
140
0.0
102
RTVSPost2010PropOp38
 70
     0
102
RTVSPost2010Prop39
140
1.0
102
RTVSPost2010PropOp39
 70
     0
102
RTVSPost2010Prop40
 90
        0
102
RTVSPost2010PropOp40
 70
     0
102
RTVSPost2010Prop41ColorIndex
 90
       18
102
RTVSPost2010Prop41ColorRGB
 90
        0
102
RTVSPost2010PropOp41
 70
     0
102
RTVSPost2010Prop42
 90
       50
102
RTVSPost2010PropOp42
 70
     0
102
RTVSPost2010Prop43
 90
        3
102
RTVSPost2010PropOp43
 70
     0
102
RTVSPost2010Prop44ColorIndex
 90
        5
102
RTVSPost2010Prop44ColorRGB
 90
      255
102
RTVSPost2010PropOp44
 70
     0
102
RTVSPost2010Prop45
280
     0
102
RTVSPost2010PropOp45
 70
     0
102
RTVSPost2010Prop46
 90
       50
102
RTVSPost2010PropOp46
 70
     0
102
RTVSPost2010Prop47
 90
       50
102
RTVSPost2010PropOp47
 70
     0
102
RTVSPost2010Prop48
 90
       50
102
RTVSPost2010PropOp48
 70
     0
102
RTVSPost2010Prop49
280
     0
102
RTVSPost2010PropOp49
 70
     0
102
RTVSPost2010Prop50
 90
       50
102
RTVSPost2010PropOp50
 70
     0
102
RTVSPost2010Prop51ColorIndex
 90
      256
102
RTVSPost2010Prop51ColorRGB
 90
-16777216
102
RTVSPost2010PropOp51
 70
     0
102
RTVSPost2010Prop52
140
1.0
102
RTVSPost2010PropOp52
 70
     0
102
RTVSPost2010Prop53
 90
        2
102
RTVSPost2010PropOp53
 70
     0
102
RTVSPost2010Prop54
  1
strokes_ogs.tif
102
RTVSPost2010PropOp54
 70
     0
102
RTVSPost2010Prop55
280
     0
102
RTVSPost2010PropOp55
 70
     0
102
RTVSPost2010Prop56
140
1.0
102
RTVSPost2010PropOp56
 70
     0
102
RTVSPost2010Prop57
140
1.0
102
RTVSPost2010PropOp57
 70
     0
102
RTVSPropertyOp0
 70
     0
102
RTVSPropertyOp1
 70
     0
102
RTVSPropertyOp2
 70
     0
102
RTVSPropertyOp3
 70
     0
102
RTVSPropertyOp4
 70
     0
102
RTVSPropertyOp5
 70
     0
102
RTVSPropertyOp6
 70
     0
102
RTVSPropertyOp7
 70
     0
102
RTVSPropertyOp8
 70
     0
102
RTVSPropertyOp9
 70
     0
102
RTVSPropertyOp10
 70
     0
102
RTVSPropertyOp11
 70
     0
102
RTVSPropertyOp12
 70
     0
102
RTVSPropertyOp13
 70
     0
102
RTVSPropertyOp14
 70
     2
102
RTVSPropertyOp15
 70
     0
102
RTVSPropertyOp16
 70
     0
102
RTVSPropertyOp17
 70
     0
102
RTVSPropertyOp18
 70
     0
102
RTVSPropertyOp19
 70
     0
102
RTVSPropertyOp20
 70
     0
102
RTVSPropertyOp21
 70
     0
102
RTVSPropertyOp22
 70
     0
102
RTVSPropertyOp23
 70
     0
102
RTVSPropertyOp24
 70
     0
102
RTVSPropertyOp25
 70
     0
102
RTVSPropertyOp26
 70
     0
102
RTVSPropertyOp27
 70
     0
102
RTVSPropertyOp28
 70
     0
102
RTVSPropertyOp29
 70
     0
102
RTVSPropertyOp30
 70
     0
102
RTVSPropertyOp31
 70
     0
102
RTVSPropertyOp32
 70
     0
102
RTVSPropertyOp33
 70
     0
102
RTVSPropertyOp34
 70
     0
102
RTVSPropertyOp35
 70
     0
102
RTVSPropertyOp36
 70
     0
102
RTVSPropertyOp37
 70
     0
102
RTVSPropertyOp38
 70
     0
102
RTVSPropertyOp39
 70
     0
102
RTVSPropertyOp40
 70
     0
102
RTVSPropertyOp41
 70
     0
102
RTVSPropertyOp42
 70
     0
102
RTVSPropertyOp43
 70
     0
102
RTVSPropertyOp44
 70
     0
102
RTVSPropertyOp45
 70
     0
102
RTVSPropertyOp46
 70
     0
102
RTVSPropertyOp47
 70
     0
102
RTVSPropertyOp48
 70
     0
102
RTVSPropertyOp49
 70
     0
102
RTVSPropertyOp50
 70
     0
102
RTVSPropertyOp51
 70
     0
102
RTVSPropertyOp52
 70
     0
102
RTVSPropertyOp53
 70
     0
102
RTVSPropertyOp54
 70
     0
102
RTVSPropertyOp55
 70
     0
102
RTVSPropertyOp56
 70
     0
102
RTVSPropertyOp57
 70
     0
102
RTVSPropertyOp58
 70
     1
102
RTVSPropertyOp59
 70
     1
102
RTVSPropertyOp60
 70
     1
102
RTVSPropertyOp61
 70
     1
102
RTVSPropertyOp62
 70
     1
  0
XRECORD
  5
99BF
102
{ACAD_REACTORS
330
99BE
102
}
330
99BE
100
AcDbXrecord
280
     1
102
RTVSPost2010Prop28
280
     0
102
RTVSPost2010PropOp28
 70
     1
102
RTVSPost2010Prop29
280
     1
102
RTVSPost2010PropOp29
 70
     1
102
RTVSPost2010Prop30
280
     1
102
RTVSPost2010PropOp30
 70
     1
102
RTVSPost2010Prop31
280
     0
102
RTVSPost2010PropOp31
 70
     1
102
RTVSPost2010Prop32
280
     0
102
RTVSPost2010PropOp32
 70
     1
102
RTVSPost2010Prop33
280
     0
102
RTVSPost2010PropOp33
 70
     1
102
RTVSPost2010Prop34
280
     0
102
RTVSPost2010PropOp34
 70
     1
102
RTVSPost2010Prop35
280
     0
102
RTVSPost2010PropOp35
 70
     1
102
RTVSPost2010Prop36
280
     0
102
RTVSPost2010PropOp36
 70
     1
102
RTVSPost2010Prop37
 90
       50
102
RTVSPost2010PropOp37
 70
     1
102
RTVSPost2010Prop38
140
0.0
102
RTVSPost2010PropOp38
 70
     1
102
RTVSPost2010Prop39
140
1.0
102
RTVSPost2010PropOp39
 70
     1
102
RTVSPost2010Prop40
 90
        0
102
RTVSPost2010PropOp40
 70
     1
102
RTVSPost2010Prop41ColorIndex
 90
       18
102
RTVSPost2010Prop41ColorRGB
 90
        0
102
RTVSPost2010PropOp41
 70
     1
102
RTVSPost2010Prop42
 90
       50
102
RTVSPost2010PropOp42
 70
     1
102
RTVSPost2010Prop43
 90
        3
102
RTVSPost2010PropOp43
 70
     1
102
RTVSPost2010Prop44ColorIndex
 90
        5
102
RTVSPost2010Prop44ColorRGB
 90
      255
102
RTVSPost2010PropOp44
 70
     1
102
RTVSPost2010Prop45
280
     0
102
RTVSPost2010PropOp45
 70
     1
102
RTVSPost2010Prop46
 90
       50
102
RTVSPost2010PropOp46
 70
     1
102
RTVSPost2010Prop47
 90
       50
102
RTVSPost2010PropOp47
 70
     1
102
RTVSPost2010Prop48
 90
       50
102
RTVSPost2010PropOp48
 70
     1
102
RTVSPost2010Prop49
280
     0
102
RTVSPost2010PropOp49
 70
     1
102
RTVSPost2010Prop50
 90
       50
102
RTVSPost2010PropOp50
 70
     1
102
RTVSPost2010Prop51ColorIndex
 90
      256
102
RTVSPost2010Prop51ColorRGB
 90
-16777216
102
RTVSPost2010PropOp51
 70
     0
102
RTVSPost2010Prop52
140
1.0
102
RTVSPost2010PropOp52
 70
     0
102
RTVSPost2010Prop53
 90
        2
102
RTVSPost2010PropOp53
 70
     1
102
RTVSPost2010Prop54
  1
strokes_ogs.tif
102
RTVSPost2010PropOp54
 70
     1
102
RTVSPost2010Prop55
280
     0
102
RTVSPost2010PropOp55
 70
     1
102
RTVSPost2010Prop56
140
1.0
102
RTVSPost2010PropOp56
 70
     1
102
RTVSPost2010Prop57
140
1.0
102
RTVSPost2010PropOp57
 70
     1
102
RTVSPropertyOp0
 70
     1
102
RTVSPropertyOp1
 70
     1
102
RTVSPropertyOp2
 70
     1
102
RTVSPropertyOp3
 70
     1
102
RTVSPropertyOp4
 70
     1
102
RTVSPropertyOp5
 70
     1
102
RTVSPropertyOp6
 70
     1
102
RTVSPropertyOp7
 70
     1
102
RTVSPropertyOp8
 70
     1
102
RTVSPropertyOp9
 70
     1
102
RTVSPropertyOp10
 70
     1
102
RTVSPropertyOp11
 70
     1
102
RTVSPropertyOp12
 70
     1
102
RTVSPropertyOp13
 70
     1
102
RTVSPropertyOp14
 70
     1
102
RTVSPropertyOp15
 70
     1
102
RTVSPropertyOp16
 70
     1
102
RTVSPropertyOp17
 70
     1
102
RTVSPropertyOp18
 70
     1
102
RTVSPropertyOp19
 70
     1
102
RTVSPropertyOp20
 70
     1
102
RTVSPropertyOp21
 70
     1
102
RTVSPropertyOp22
 70
     1
102
RTVSPropertyOp23
 70
     1
102
RTVSPropertyOp24
 70
     1
102
RTVSPropertyOp25
 70
     1
102
RTVSPropertyOp26
 70
     1
102
RTVSPropertyOp27
 70
     1
102
RTVSPropertyOp28
 70
     1
102
RTVSPropertyOp29
 70
     1
102
RTVSPropertyOp30
 70
     1
102
RTVSPropertyOp31
 70
     1
102
RTVSPropertyOp32
 70
     1
102
RTVSPropertyOp33
 70
     1
102
RTVSPropertyOp34
 70
     1
102
RTVSPropertyOp35
 70
     1
102
RTVSPropertyOp36
 70
     1
102
RTVSPropertyOp37
 70
     1
102
RTVSPropertyOp38
 70
     1
102
RTVSPropertyOp39
 70
     1
102
RTVSPropertyOp40
 70
     1
102
RTVSPropertyOp41
 70
     1
102
RTVSPropertyOp42
 70
     1
102
RTVSPropertyOp43
 70
     1
102
RTVSPropertyOp44
 70
     1
102
RTVSPropertyOp45
 70
     1
102
RTVSPropertyOp46
 70
     1
102
RTVSPropertyOp47
 70
     1
102
RTVSPropertyOp48
 70
     1
102
RTVSPropertyOp49
 70
     1
102
RTVSPropertyOp50
 70
     1
102
RTVSPropertyOp51
 70
     0
102
RTVSPropertyOp52
 70
     0
102
RTVSPropertyOp53
 70
     1
102
RTVSPropertyOp54
 70
     1
102
RTVSPropertyOp55
 70
     1
102
RTVSPropertyOp56
 70
     1
102
RTVSPropertyOp57
 70
     1
102
RTVSPropertyOp58
 70
     1
102
RTVSPropertyOp59
 70
     1
102
RTVSPropertyOp60
 70
     1
102
RTVSPropertyOp61
 70
     1
102
RTVSPropertyOp62
 70
     1
  0
XRECORD
  5
99D5
102
{ACAD_REACTORS
330
99D4
102
}
330
99D4
100
AcDbXrecord
280
     1
102
RTVSPost2010Prop28
280
     0
102
RTVSPost2010PropOp28
 70
     1
102
RTVSPost2010Prop29
280
     1
102
RTVSPost2010PropOp29
 70
     1
102
RTVSPost2010Prop30
280
     1
102
RTVSPost2010PropOp30
 70
     1
102
RTVSPost2010Prop31
280
     0
102
RTVSPost2010PropOp31
 70
     1
102
RTVSPost2010Prop32
280
     0
102
RTVSPost2010PropOp32
 70
     1
102
RTVSPost2010Prop33
280
     0
102
RTVSPost2010PropOp33
 70
     1
102
RTVSPost2010Prop34
280
     0
102
RTVSPost2010PropOp34
 70
     1
102
RTVSPost2010Prop35
280
     0
102
RTVSPost2010PropOp35
 70
     1
102
RTVSPost2010Prop36
280
     0
102
RTVSPost2010PropOp36
 70
     1
102
RTVSPost2010Prop37
 90
       50
102
RTVSPost2010PropOp37
 70
     1
102
RTVSPost2010Prop38
140
0.0
102
RTVSPost2010PropOp38
 70
     1
102
RTVSPost2010Prop39
140
1.0
102
RTVSPost2010PropOp39
 70
     1
102
RTVSPost2010Prop40
 90
        0
102
RTVSPost2010PropOp40
 70
     1
102
RTVSPost2010Prop41ColorIndex
 90
       18
102
RTVSPost2010Prop41ColorRGB
 90
        0
102
RTVSPost2010PropOp41
 70
     1
102
RTVSPost2010Prop42
 90
       50
102
RTVSPost2010PropOp42
 70
     1
102
RTVSPost2010Prop43
 90
        3
102
RTVSPost2010PropOp43
 70
     1
102
RTVSPost2010Prop44ColorIndex
 90
        5
102
RTVSPost2010Prop44ColorRGB
 90
      255
102
RTVSPost2010PropOp44
 70
     1
102
RTVSPost2010Prop45
280
     0
102
RTVSPost2010PropOp45
 70
     1
102
RTVSPost2010Prop46
 90
       50
102
RTVSPost2010PropOp46
 70
     1
102
RTVSPost2010Prop47
 90
       50
102
RTVSPost2010PropOp47
 70
     1
102
RTVSPost2010Prop48
 90
       50
102
RTVSPost2010PropOp48
 70
     1
102
RTVSPost2010Prop49
280
     0
102
RTVSPost2010PropOp49
 70
     1
102
RTVSPost2010Prop50
 90
       50
102
RTVSPost2010PropOp50
 70
     1
102
RTVSPost2010Prop51ColorIndex
 90
      256
102
RTVSPost2010Prop51ColorRGB
 90
-16777216
102
RTVSPost2010PropOp51
 70
     0
102
RTVSPost2010Prop52
140
1.0
102
RTVSPost2010PropOp52
 70
     0
102
RTVSPost2010Prop53
 90
        2
102
RTVSPost2010PropOp53
 70
     1
102
RTVSPost2010Prop54
  1
strokes_ogs.tif
102
RTVSPost2010PropOp54
 70
     1
102
RTVSPost2010Prop55
280
     0
102
RTVSPost2010PropOp55
 70
     1
102
RTVSPost2010Prop56
140
1.0
102
RTVSPost2010PropOp56
 70
     1
102
RTVSPost2010Prop57
140
1.0
102
RTVSPost2010PropOp57
 70
     1
102
RTVSPropertyOp0
 70
     1
102
RTVSPropertyOp1
 70
     1
102
RTVSPropertyOp2
 70
     1
102
RTVSPropertyOp3
 70
     1
102
RTVSPropertyOp4
 70
     1
102
RTVSPropertyOp5
 70
     1
102
RTVSPropertyOp6
 70
     1
102
RTVSPropertyOp7
 70
     1
102
RTVSPropertyOp8
 70
     1
102
RTVSPropertyOp9
 70
     1
102
RTVSPropertyOp10
 70
     1
102
RTVSPropertyOp11
 70
     1
102
RTVSPropertyOp12
 70
     1
102
RTVSPropertyOp13
 70
     1
102
RTVSPropertyOp14
 70
     1
102
RTVSPropertyOp15
 70
     1
102
RTVSPropertyOp16
 70
     1
102
RTVSPropertyOp17
 70
     1
102
RTVSPropertyOp18
 70
     1
102
RTVSPropertyOp19
 70
     1
102
RTVSPropertyOp20
 70
     1
102
RTVSPropertyOp21
 70
     1
102
RTVSPropertyOp22
 70
     1
102
RTVSPropertyOp23
 70
     1
102
RTVSPropertyOp24
 70
     1
102
RTVSPropertyOp25
 70
     1
102
RTVSPropertyOp26
 70
     1
102
RTVSPropertyOp27
 70
     1
102
RTVSPropertyOp28
 70
     1
102
RTVSPropertyOp29
 70
     1
102
RTVSPropertyOp30
 70
     1
102
RTVSPropertyOp31
 70
     1
102
RTVSPropertyOp32
 70
     1
102
RTVSPropertyOp33
 70
     1
102
RTVSPropertyOp34
 70
     1
102
RTVSPropertyOp35
 70
     1
102
RTVSPropertyOp36
 70
     1
102
RTVSPropertyOp37
 70
     1
102
RTVSPropertyOp38
 70
     1
102
RTVSPropertyOp39
 70
     1
102
RTVSPropertyOp40
 70
     1
102
RTVSPropertyOp41
 70
     1
102
RTVSPropertyOp42
 70
     1
102
RTVSPropertyOp43
 70
     1
102
RTVSPropertyOp44
 70
     1
102
RTVSPropertyOp45
 70
     1
102
RTVSPropertyOp46
 70
     1
102
RTVSPropertyOp47
 70
     1
102
RTVSPropertyOp48
 70
     1
102
RTVSPropertyOp49
 70
     1
102
RTVSPropertyOp50
 70
     1
102
RTVSPropertyOp51
 70
     0
102
RTVSPropertyOp52
 70
     0
102
RTVSPropertyOp53
 70
     1
102
RTVSPropertyOp54
 70
     1
102
RTVSPropertyOp55
 70
     1
102
RTVSPropertyOp56
 70
     1
102
RTVSPropertyOp57
 70
     1
102
RTVSPropertyOp58
 70
     1
102
RTVSPropertyOp59
 70
     1
102
RTVSPropertyOp60
 70
     1
102
RTVSPropertyOp61
 70
     1
102
RTVSPropertyOp62
 70
     1
  0
XRECORD
  5
99D3
102
{ACAD_REACTORS
330
99D2
102
}
330
99D2
100
AcDbXrecord
280
     1
102
RTVSPost2010Prop28
280
     0
102
RTVSPost2010PropOp28
 70
     1
102
RTVSPost2010Prop29
280
     1
102
RTVSPost2010PropOp29
 70
     1
102
RTVSPost2010Prop30
280
     1
102
RTVSPost2010PropOp30
 70
     1
102
RTVSPost2010Prop31
280
     0
102
RTVSPost2010PropOp31
 70
     1
102
RTVSPost2010Prop32
280
     0
102
RTVSPost2010PropOp32
 70
     1
102
RTVSPost2010Prop33
280
     0
102
RTVSPost2010PropOp33
 70
     1
102
RTVSPost2010Prop34
280
     0
102
RTVSPost2010PropOp34
 70
     1
102
RTVSPost2010Prop35
280
     0
102
RTVSPost2010PropOp35
 70
     1
102
RTVSPost2010Prop36
280
     0
102
RTVSPost2010PropOp36
 70
     1
102
RTVSPost2010Prop37
 90
       50
102
RTVSPost2010PropOp37
 70
     1
102
RTVSPost2010Prop38
140
0.0
102
RTVSPost2010PropOp38
 70
     1
102
RTVSPost2010Prop39
140
1.0
102
RTVSPost2010PropOp39
 70
     1
102
RTVSPost2010Prop40
 90
        0
102
RTVSPost2010PropOp40
 70
     1
102
RTVSPost2010Prop41ColorIndex
 90
       18
102
RTVSPost2010Prop41ColorRGB
 90
        0
102
RTVSPost2010PropOp41
 70
     1
102
RTVSPost2010Prop42
 90
       50
102
RTVSPost2010PropOp42
 70
     1
102
RTVSPost2010Prop43
 90
        3
102
RTVSPost2010PropOp43
 70
     1
102
RTVSPost2010Prop44ColorIndex
 90
        5
102
RTVSPost2010Prop44ColorRGB
 90
      255
102
RTVSPost2010PropOp44
 70
     1
102
RTVSPost2010Prop45
280
     0
102
RTVSPost2010PropOp45
 70
     1
102
RTVSPost2010Prop46
 90
       50
102
RTVSPost2010PropOp46
 70
     1
102
RTVSPost2010Prop47
 90
       50
102
RTVSPost2010PropOp47
 70
     1
102
RTVSPost2010Prop48
 90
       50
102
RTVSPost2010PropOp48
 70
     1
102
RTVSPost2010Prop49
280
     0
102
RTVSPost2010PropOp49
 70
     1
102
RTVSPost2010Prop50
 90
       50
102
RTVSPost2010PropOp50
 70
     1
102
RTVSPost2010Prop51ColorIndex
 90
      256
102
RTVSPost2010Prop51ColorRGB
 90
-16777216
102
RTVSPost2010PropOp51
 70
     0
102
RTVSPost2010Prop52
140
1.0
102
RTVSPost2010PropOp52
 70
     0
102
RTVSPost2010Prop53
 90
        2
102
RTVSPost2010PropOp53
 70
     1
102
RTVSPost2010Prop54
  1
strokes_ogs.tif
102
RTVSPost2010PropOp54
 70
     1
102
RTVSPost2010Prop55
280
     0
102
RTVSPost2010PropOp55
 70
     1
102
RTVSPost2010Prop56
140
1.0
102
RTVSPost2010PropOp56
 70
     1
102
RTVSPost2010Prop57
140
1.0
102
RTVSPost2010PropOp57
 70
     1
102
RTVSPropertyOp0
 70
     1
102
RTVSPropertyOp1
 70
     1
102
RTVSPropertyOp2
 70
     1
102
RTVSPropertyOp3
 70
     1
102
RTVSPropertyOp4
 70
     1
102
RTVSPropertyOp5
 70
     1
102
RTVSPropertyOp6
 70
     1
102
RTVSPropertyOp7
 70
     1
102
RTVSPropertyOp8
 70
     1
102
RTVSPropertyOp9
 70
     1
102
RTVSPropertyOp10
 70
     1
102
RTVSPropertyOp11
 70
     1
102
RTVSPropertyOp12
 70
     1
102
RTVSPropertyOp13
 70
     1
102
RTVSPropertyOp14
 70
     1
102
RTVSPropertyOp15
 70
     1
102
RTVSPropertyOp16
 70
     1
102
RTVSPropertyOp17
 70
     1
102
RTVSPropertyOp18
 70
     1
102
RTVSPropertyOp19
 70
     1
102
RTVSPropertyOp20
 70
     1
102
RTVSPropertyOp21
 70
     1
102
RTVSPropertyOp22
 70
     1
102
RTVSPropertyOp23
 70
     1
102
RTVSPropertyOp24
 70
     1
102
RTVSPropertyOp25
 70
     1
102
RTVSPropertyOp26
 70
     1
102
RTVSPropertyOp27
 70
     1
102
RTVSPropertyOp28
 70
     1
102
RTVSPropertyOp29
 70
     1
102
RTVSPropertyOp30
 70
     1
102
RTVSPropertyOp31
 70
     1
102
RTVSPropertyOp32
 70
     1
102
RTVSPropertyOp33
 70
     1
102
RTVSPropertyOp34
 70
     1
102
RTVSPropertyOp35
 70
     1
102
RTVSPropertyOp36
 70
     1
102
RTVSPropertyOp37
 70
     1
102
RTVSPropertyOp38
 70
     1
102
RTVSPropertyOp39
 70
     1
102
RTVSPropertyOp40
 70
     1
102
RTVSPropertyOp41
 70
     1
102
RTVSPropertyOp42
 70
     1
102
RTVSPropertyOp43
 70
     1
102
RTVSPropertyOp44
 70
     1
102
RTVSPropertyOp45
 70
     1
102
RTVSPropertyOp46
 70
     1
102
RTVSPropertyOp47
 70
     1
102
RTVSPropertyOp48
 70
     1
102
RTVSPropertyOp49
 70
     1
102
RTVSPropertyOp50
 70
     1
102
RTVSPropertyOp51
 70
     0
102
RTVSPropertyOp52
 70
     0
102
RTVSPropertyOp53
 70
     1
102
RTVSPropertyOp54
 70
     1
102
RTVSPropertyOp55
 70
     1
102
RTVSPropertyOp56
 70
     1
102
RTVSPropertyOp57
 70
     1
102
RTVSPropertyOp58
 70
     1
102
RTVSPropertyOp59
 70
     1
102
RTVSPropertyOp60
 70
     1
102
RTVSPropertyOp61
 70
     1
102
RTVSPropertyOp62
 70
     1
  0
XRECORD
  5
99CD
102
{ACAD_REACTORS
330
99CC
102
}
330
99CC
100
AcDbXrecord
280
     1
102
RTVSPost2010Prop28
280
     0
102
RTVSPost2010PropOp28
 70
     1
102
RTVSPost2010Prop29
280
     1
102
RTVSPost2010PropOp29
 70
     1
102
RTVSPost2010Prop30
280
     1
102
RTVSPost2010PropOp30
 70
     1
102
RTVSPost2010Prop31
280
     0
102
RTVSPost2010PropOp31
 70
     1
102
RTVSPost2010Prop32
280
     0
102
RTVSPost2010PropOp32
 70
     1
102
RTVSPost2010Prop33
280
     0
102
RTVSPost2010PropOp33
 70
     1
102
RTVSPost2010Prop34
280
     0
102
RTVSPost2010PropOp34
 70
     1
102
RTVSPost2010Prop35
280
     0
102
RTVSPost2010PropOp35
 70
     1
102
RTVSPost2010Prop36
280
     0
102
RTVSPost2010PropOp36
 70
     1
102
RTVSPost2010Prop37
 90
       50
102
RTVSPost2010PropOp37
 70
     1
102
RTVSPost2010Prop38
140
0.0
102
RTVSPost2010PropOp38
 70
     1
102
RTVSPost2010Prop39
140
1.0
102
RTVSPost2010PropOp39
 70
     1
102
RTVSPost2010Prop40
 90
        0
102
RTVSPost2010PropOp40
 70
     1
102
RTVSPost2010Prop41ColorIndex
 90
       18
102
RTVSPost2010Prop41ColorRGB
 90
        0
102
RTVSPost2010PropOp41
 70
     1
102
RTVSPost2010Prop42
 90
       50
102
RTVSPost2010PropOp42
 70
     1
102
RTVSPost2010Prop43
 90
        3
102
RTVSPost2010PropOp43
 70
     1
102
RTVSPost2010Prop44ColorIndex
 90
        5
102
RTVSPost2010Prop44ColorRGB
 90
      255
102
RTVSPost2010PropOp44
 70
     1
102
RTVSPost2010Prop45
280
     0
102
RTVSPost2010PropOp45
 70
     1
102
RTVSPost2010Prop46
 90
       50
102
RTVSPost2010PropOp46
 70
     1
102
RTVSPost2010Prop47
 90
       50
102
RTVSPost2010PropOp47
 70
     1
102
RTVSPost2010Prop48
 90
       50
102
RTVSPost2010PropOp48
 70
     1
102
RTVSPost2010Prop49
280
     0
102
RTVSPost2010PropOp49
 70
     1
102
RTVSPost2010Prop50
 90
       50
102
RTVSPost2010PropOp50
 70
     1
102
RTVSPost2010Prop51ColorIndex
 90
      256
102
RTVSPost2010Prop51ColorRGB
 90
-16777216
102
RTVSPost2010PropOp51
 70
     0
102
RTVSPost2010Prop52
140
1.0
102
RTVSPost2010PropOp52
 70
     0
102
RTVSPost2010Prop53
 90
        2
102
RTVSPost2010PropOp53
 70
     1
102
RTVSPost2010Prop54
  1
strokes_ogs.tif
102
RTVSPost2010PropOp54
 70
     1
102
RTVSPost2010Prop55
280
     0
102
RTVSPost2010PropOp55
 70
     1
102
RTVSPost2010Prop56
140
1.0
102
RTVSPost2010PropOp56
 70
     1
102
RTVSPost2010Prop57
140
1.0
102
RTVSPost2010PropOp57
 70
     1
102
RTVSPropertyOp0
 70
     1
102
RTVSPropertyOp1
 70
     1
102
RTVSPropertyOp2
 70
     1
102
RTVSPropertyOp3
 70
     1
102
RTVSPropertyOp4
 70
     1
102
RTVSPropertyOp5
 70
     1
102
RTVSPropertyOp6
 70
     1
102
RTVSPropertyOp7
 70
     1
102
RTVSPropertyOp8
 70
     1
102
RTVSPropertyOp9
 70
     1
102
RTVSPropertyOp10
 70
     1
102
RTVSPropertyOp11
 70
     1
102
RTVSPropertyOp12
 70
     1
102
RTVSPropertyOp13
 70
     1
102
RTVSPropertyOp14
 70
     1
102
RTVSPropertyOp15
 70
     1
102
RTVSPropertyOp16
 70
     1
102
RTVSPropertyOp17
 70
     1
102
RTVSPropertyOp18
 70
     1
102
RTVSPropertyOp19
 70
     1
102
RTVSPropertyOp20
 70
     1
102
RTVSPropertyOp21
 70
     1
102
RTVSPropertyOp22
 70
     1
102
RTVSPropertyOp23
 70
     1
102
RTVSPropertyOp24
 70
     1
102
RTVSPropertyOp25
 70
     1
102
RTVSPropertyOp26
 70
     1
102
RTVSPropertyOp27
 70
     1
102
RTVSPropertyOp28
 70
     1
102
RTVSPropertyOp29
 70
     1
102
RTVSPropertyOp30
 70
     1
102
RTVSPropertyOp31
 70
     1
102
RTVSPropertyOp32
 70
     1
102
RTVSPropertyOp33
 70
     1
102
RTVSPropertyOp34
 70
     1
102
RTVSPropertyOp35
 70
     1
102
RTVSPropertyOp36
 70
     1
102
RTVSPropertyOp37
 70
     1
102
RTVSPropertyOp38
 70
     1
102
RTVSPropertyOp39
 70
     1
102
RTVSPropertyOp40
 70
     1
102
RTVSPropertyOp41
 70
     1
102
RTVSPropertyOp42
 70
     1
102
RTVSPropertyOp43
 70
     1
102
RTVSPropertyOp44
 70
     1
102
RTVSPropertyOp45
 70
     1
102
RTVSPropertyOp46
 70
     1
102
RTVSPropertyOp47
 70
     1
102
RTVSPropertyOp48
 70
     1
102
RTVSPropertyOp49
 70
     1
102
RTVSPropertyOp50
 70
     1
102
RTVSPropertyOp51
 70
     0
102
RTVSPropertyOp52
 70
     0
102
RTVSPropertyOp53
 70
     1
102
RTVSPropertyOp54
 70
     1
102
RTVSPropertyOp55
 70
     1
102
RTVSPropertyOp56
 70
     1
102
RTVSPropertyOp57
 70
     1
102
RTVSPropertyOp58
 70
     1
102
RTVSPropertyOp59
 70
     1
102
RTVSPropertyOp60
 70
     1
102
RTVSPropertyOp61
 70
     1
102
RTVSPropertyOp62
 70
     1
  0
XRECORD
  5
99CF
102
{ACAD_REACTORS
330
99CE
102
}
330
99CE
100
AcDbXrecord
280
     1
102
RTVSPost2010Prop28
280
     0
102
RTVSPost2010PropOp28
 70
     1
102
RTVSPost2010Prop29
280
     1
102
RTVSPost2010PropOp29
 70
     1
102
RTVSPost2010Prop30
280
     1
102
RTVSPost2010PropOp30
 70
     1
102
RTVSPost2010Prop31
280
     0
102
RTVSPost2010PropOp31
 70
     1
102
RTVSPost2010Prop32
280
     0
102
RTVSPost2010PropOp32
 70
     1
102
RTVSPost2010Prop33
280
     0
102
RTVSPost2010PropOp33
 70
     1
102
RTVSPost2010Prop34
280
     0
102
RTVSPost2010PropOp34
 70
     1
102
RTVSPost2010Prop35
280
     0
102
RTVSPost2010PropOp35
 70
     1
102
RTVSPost2010Prop36
280
     0
102
RTVSPost2010PropOp36
 70
     1
102
RTVSPost2010Prop37
 90
       50
102
RTVSPost2010PropOp37
 70
     1
102
RTVSPost2010Prop38
140
0.0
102
RTVSPost2010PropOp38
 70
     1
102
RTVSPost2010Prop39
140
1.0
102
RTVSPost2010PropOp39
 70
     1
102
RTVSPost2010Prop40
 90
        0
102
RTVSPost2010PropOp40
 70
     1
102
RTVSPost2010Prop41ColorIndex
 90
       18
102
RTVSPost2010Prop41ColorRGB
 90
        0
102
RTVSPost2010PropOp41
 70
     1
102
RTVSPost2010Prop42
 90
       50
102
RTVSPost2010PropOp42
 70
     1
102
RTVSPost2010Prop43
 90
        3
102
RTVSPost2010PropOp43
 70
     1
102
RTVSPost2010Prop44ColorIndex
 90
        5
102
RTVSPost2010Prop44ColorRGB
 90
      255
102
RTVSPost2010PropOp44
 70
     1
102
RTVSPost2010Prop45
280
     0
102
RTVSPost2010PropOp45
 70
     1
102
RTVSPost2010Prop46
 90
       50
102
RTVSPost2010PropOp46
 70
     1
102
RTVSPost2010Prop47
 90
       50
102
RTVSPost2010PropOp47
 70
     1
102
RTVSPost2010Prop48
 90
       50
102
RTVSPost2010PropOp48
 70
     1
102
RTVSPost2010Prop49
280
     0
102
RTVSPost2010PropOp49
 70
     1
102
RTVSPost2010Prop50
 90
       50
102
RTVSPost2010PropOp50
 70
     1
102
RTVSPost2010Prop51ColorIndex
 90
      256
102
RTVSPost2010Prop51ColorRGB
 90
-16777216
102
RTVSPost2010PropOp51
 70
     0
102
RTVSPost2010Prop52
140
1.0
102
RTVSPost2010PropOp52
 70
     0
102
RTVSPost2010Prop53
 90
        2
102
RTVSPost2010PropOp53
 70
     1
102
RTVSPost2010Prop54
  1
strokes_ogs.tif
102
RTVSPost2010PropOp54
 70
     1
102
RTVSPost2010Prop55
280
     0
102
RTVSPost2010PropOp55
 70
     1
102
RTVSPost2010Prop56
140
1.0
102
RTVSPost2010PropOp56
 70
     1
102
RTVSPost2010Prop57
140
1.0
102
RTVSPost2010PropOp57
 70
     1
102
RTVSPropertyOp0
 70
     1
102
RTVSPropertyOp1
 70
     1
102
RTVSPropertyOp2
 70
     1
102
RTVSPropertyOp3
 70
     1
102
RTVSPropertyOp4
 70
     1
102
RTVSPropertyOp5
 70
     1
102
RTVSPropertyOp6
 70
     1
102
RTVSPropertyOp7
 70
     1
102
RTVSPropertyOp8
 70
     1
102
RTVSPropertyOp9
 70
     1
102
RTVSPropertyOp10
 70
     1
102
RTVSPropertyOp11
 70
     1
102
RTVSPropertyOp12
 70
     1
102
RTVSPropertyOp13
 70
     1
102
RTVSPropertyOp14
 70
     1
102
RTVSPropertyOp15
 70
     1
102
RTVSPropertyOp16
 70
     1
102
RTVSPropertyOp17
 70
     1
102
RTVSPropertyOp18
 70
     1
102
RTVSPropertyOp19
 70
     1
102
RTVSPropertyOp20
 70
     1
102
RTVSPropertyOp21
 70
     1
102
RTVSPropertyOp22
 70
     1
102
RTVSPropertyOp23
 70
     1
102
RTVSPropertyOp24
 70
     1
102
RTVSPropertyOp25
 70
     1
102
RTVSPropertyOp26
 70
     1
102
RTVSPropertyOp27
 70
     1
102
RTVSPropertyOp28
 70
     1
102
RTVSPropertyOp29
 70
     1
102
RTVSPropertyOp30
 70
     1
102
RTVSPropertyOp31
 70
     1
102
RTVSPropertyOp32
 70
     1
102
RTVSPropertyOp33
 70
     1
102
RTVSPropertyOp34
 70
     1
102
RTVSPropertyOp35
 70
     1
102
RTVSPropertyOp36
 70
     1
102
RTVSPropertyOp37
 70
     1
102
RTVSPropertyOp38
 70
     1
102
RTVSPropertyOp39
 70
     1
102
RTVSPropertyOp40
 70
     1
102
RTVSPropertyOp41
 70
     1
102
RTVSPropertyOp42
 70
     1
102
RTVSPropertyOp43
 70
     1
102
RTVSPropertyOp44
 70
     1
102
RTVSPropertyOp45
 70
     1
102
RTVSPropertyOp46
 70
     1
102
RTVSPropertyOp47
 70
     1
102
RTVSPropertyOp48
 70
     1
102
RTVSPropertyOp49
 70
     1
102
RTVSPropertyOp50
 70
     1
102
RTVSPropertyOp51
 70
     0
102
RTVSPropertyOp52
 70
     0
102
RTVSPropertyOp53
 70
     1
102
RTVSPropertyOp54
 70
     1
102
RTVSPropertyOp55
 70
     1
102
RTVSPropertyOp56
 70
     1
102
RTVSPropertyOp57
 70
     1
102
RTVSPropertyOp58
 70
     1
102
RTVSPropertyOp59
 70
     1
102
RTVSPropertyOp60
 70
     1
102
RTVSPropertyOp61
 70
     1
102
RTVSPropertyOp62
 70
     1
  0
XRECORD
  5
99C5
102
{ACAD_REACTORS
330
99C4
102
}
330
99C4
100
AcDbXrecord
280
     1
102
RTVSPost2010Prop28
280
     0
102
RTVSPost2010PropOp28
 70
     1
102
RTVSPost2010Prop29
280
     1
102
RTVSPost2010PropOp29
 70
     1
102
RTVSPost2010Prop30
280
     1
102
RTVSPost2010PropOp30
 70
     1
102
RTVSPost2010Prop31
280
     0
102
RTVSPost2010PropOp31
 70
     1
102
RTVSPost2010Prop32
280
     0
102
RTVSPost2010PropOp32
 70
     1
102
RTVSPost2010Prop33
280
     0
102
RTVSPost2010PropOp33
 70
     1
102
RTVSPost2010Prop34
280
     0
102
RTVSPost2010PropOp34
 70
     1
102
RTVSPost2010Prop35
280
     0
102
RTVSPost2010PropOp35
 70
     1
102
RTVSPost2010Prop36
280
     0
102
RTVSPost2010PropOp36
 70
     1
102
RTVSPost2010Prop37
 90
       50
102
RTVSPost2010PropOp37
 70
     1
102
RTVSPost2010Prop38
140
0.0
102
RTVSPost2010PropOp38
 70
     1
102
RTVSPost2010Prop39
140
1.0
102
RTVSPost2010PropOp39
 70
     1
102
RTVSPost2010Prop40
 90
        0
102
RTVSPost2010PropOp40
 70
     1
102
RTVSPost2010Prop41ColorIndex
 90
       18
102
RTVSPost2010Prop41ColorRGB
 90
        0
102
RTVSPost2010PropOp41
 70
     1
102
RTVSPost2010Prop42
 90
       50
102
RTVSPost2010PropOp42
 70
     1
102
RTVSPost2010Prop43
 90
        3
102
RTVSPost2010PropOp43
 70
     1
102
RTVSPost2010Prop44ColorIndex
 90
        5
102
RTVSPost2010Prop44ColorRGB
 90
      255
102
RTVSPost2010PropOp44
 70
     1
102
RTVSPost2010Prop45
280
     0
102
RTVSPost2010PropOp45
 70
     1
102
RTVSPost2010Prop46
 90
       50
102
RTVSPost2010PropOp46
 70
     1
102
RTVSPost2010Prop47
 90
       50
102
RTVSPost2010PropOp47
 70
     1
102
RTVSPost2010Prop48
 90
       50
102
RTVSPost2010PropOp48
 70
     1
102
RTVSPost2010Prop49
280
     0
102
RTVSPost2010PropOp49
 70
     1
102
RTVSPost2010Prop50
 90
       50
102
RTVSPost2010PropOp50
 70
     1
102
RTVSPost2010Prop51ColorIndex
 90
      256
102
RTVSPost2010Prop51ColorRGB
 90
-16777216
102
RTVSPost2010PropOp51
 70
     0
102
RTVSPost2010Prop52
140
1.0
102
RTVSPost2010PropOp52
 70
     0
102
RTVSPost2010Prop53
 90
        2
102
RTVSPost2010PropOp53
 70
     1
102
RTVSPost2010Prop54
  1
strokes_ogs.tif
102
RTVSPost2010PropOp54
 70
     1
102
RTVSPost2010Prop55
280
     0
102
RTVSPost2010PropOp55
 70
     1
102
RTVSPost2010Prop56
140
1.0
102
RTVSPost2010PropOp56
 70
     1
102
RTVSPost2010Prop57
140
1.0
102
RTVSPost2010PropOp57
 70
     1
102
RTVSPropertyOp0
 70
     1
102
RTVSPropertyOp1
 70
     1
102
RTVSPropertyOp2
 70
     1
102
RTVSPropertyOp3
 70
     1
102
RTVSPropertyOp4
 70
     1
102
RTVSPropertyOp5
 70
     1
102
RTVSPropertyOp6
 70
     1
102
RTVSPropertyOp7
 70
     1
102
RTVSPropertyOp8
 70
     1
102
RTVSPropertyOp9
 70
     1
102
RTVSPropertyOp10
 70
     1
102
RTVSPropertyOp11
 70
     1
102
RTVSPropertyOp12
 70
     1
102
RTVSPropertyOp13
 70
     1
102
RTVSPropertyOp14
 70
     1
102
RTVSPropertyOp15
 70
     1
102
RTVSPropertyOp16
 70
     1
102
RTVSPropertyOp17
 70
     1
102
RTVSPropertyOp18
 70
     1
102
RTVSPropertyOp19
 70
     1
102
RTVSPropertyOp20
 70
     1
102
RTVSPropertyOp21
 70
     1
102
RTVSPropertyOp22
 70
     1
102
RTVSPropertyOp23
 70
     1
102
RTVSPropertyOp24
 70
     1
102
RTVSPropertyOp25
 70
     1
102
RTVSPropertyOp26
 70
     1
102
RTVSPropertyOp27
 70
     1
102
RTVSPropertyOp28
 70
     1
102
RTVSPropertyOp29
 70
     1
102
RTVSPropertyOp30
 70
     1
102
RTVSPropertyOp31
 70
     1
102
RTVSPropertyOp32
 70
     1
102
RTVSPropertyOp33
 70
     1
102
RTVSPropertyOp34
 70
     1
102
RTVSPropertyOp35
 70
     1
102
RTVSPropertyOp36
 70
     1
102
RTVSPropertyOp37
 70
     1
102
RTVSPropertyOp38
 70
     1
102
RTVSPropertyOp39
 70
     1
102
RTVSPropertyOp40
 70
     1
102
RTVSPropertyOp41
 70
     1
102
RTVSPropertyOp42
 70
     1
102
RTVSPropertyOp43
 70
     1
102
RTVSPropertyOp44
 70
     1
102
RTVSPropertyOp45
 70
     1
102
RTVSPropertyOp46
 70
     1
102
RTVSPropertyOp47
 70
     1
102
RTVSPropertyOp48
 70
     1
102
RTVSPropertyOp49
 70
     1
102
RTVSPropertyOp50
 70
     1
102
RTVSPropertyOp51
 70
     0
102
RTVSPropertyOp52
 70
     0
102
RTVSPropertyOp53
 70
     1
102
RTVSPropertyOp54
 70
     1
102
RTVSPropertyOp55
 70
     1
102
RTVSPropertyOp56
 70
     1
102
RTVSPropertyOp57
 70
     1
102
RTVSPropertyOp58
 70
     1
102
RTVSPropertyOp59
 70
     1
102
RTVSPropertyOp60
 70
     1
102
RTVSPropertyOp61
 70
     1
102
RTVSPropertyOp62
 70
     1
  0
XRECORD
  5
99B9
102
{ACAD_REACTORS
330
99B8
102
}
330
99B8
100
AcDbXrecord
280
     1
102
RTVSPost2010Prop28
280
     0
102
RTVSPost2010PropOp28
 70
     1
102
RTVSPost2010Prop29
280
     1
102
RTVSPost2010PropOp29
 70
     1
102
RTVSPost2010Prop30
280
     1
102
RTVSPost2010PropOp30
 70
     1
102
RTVSPost2010Prop31
280
     0
102
RTVSPost2010PropOp31
 70
     1
102
RTVSPost2010Prop32
280
     0
102
RTVSPost2010PropOp32
 70
     1
102
RTVSPost2010Prop33
280
     0
102
RTVSPost2010PropOp33
 70
     1
102
RTVSPost2010Prop34
280
     0
102
RTVSPost2010PropOp34
 70
     1
102
RTVSPost2010Prop35
280
     0
102
RTVSPost2010PropOp35
 70
     1
102
RTVSPost2010Prop36
280
     0
102
RTVSPost2010PropOp36
 70
     1
102
RTVSPost2010Prop37
 90
       50
102
RTVSPost2010PropOp37
 70
     1
102
RTVSPost2010Prop38
140
0.0
102
RTVSPost2010PropOp38
 70
     1
102
RTVSPost2010Prop39
140
1.0
102
RTVSPost2010PropOp39
 70
     1
102
RTVSPost2010Prop40
 90
        0
102
RTVSPost2010PropOp40
 70
     1
102
RTVSPost2010Prop41ColorIndex
 90
       18
102
RTVSPost2010Prop41ColorRGB
 90
        0
102
RTVSPost2010PropOp41
 70
     1
102
RTVSPost2010Prop42
 90
       50
102
RTVSPost2010PropOp42
 70
     1
102
RTVSPost2010Prop43
 90
        3
102
RTVSPost2010PropOp43
 70
     1
102
RTVSPost2010Prop44ColorIndex
 90
        5
102
RTVSPost2010Prop44ColorRGB
 90
      255
102
RTVSPost2010PropOp44
 70
     1
102
RTVSPost2010Prop45
280
     0
102
RTVSPost2010PropOp45
 70
     1
102
RTVSPost2010Prop46
 90
       50
102
RTVSPost2010PropOp46
 70
     1
102
RTVSPost2010Prop47
 90
       50
102
RTVSPost2010PropOp47
 70
     1
102
RTVSPost2010Prop48
 90
       50
102
RTVSPost2010PropOp48
 70
     1
102
RTVSPost2010Prop49
280
     0
102
RTVSPost2010PropOp49
 70
     1
102
RTVSPost2010Prop50
 90
       50
102
RTVSPost2010PropOp50
 70
     1
102
RTVSPost2010Prop51ColorIndex
 90
      256
102
RTVSPost2010Prop51ColorRGB
 90
-16777216
102
RTVSPost2010PropOp51
 70
     0
102
RTVSPost2010Prop52
140
1.0
102
RTVSPost2010PropOp52
 70
     0
102
RTVSPost2010Prop53
 90
        2
102
RTVSPost2010PropOp53
 70
     1
102
RTVSPost2010Prop54
  1
strokes_ogs.tif
102
RTVSPost2010PropOp54
 70
     1
102
RTVSPost2010Prop55
280
     0
102
RTVSPost2010PropOp55
 70
     1
102
RTVSPost2010Prop56
140
1.0
102
RTVSPost2010PropOp56
 70
     1
102
RTVSPost2010Prop57
140
1.0
102
RTVSPost2010PropOp57
 70
     1
102
RTVSPropertyOp0
 70
     1
102
RTVSPropertyOp1
 70
     1
102
RTVSPropertyOp2
 70
     1
102
RTVSPropertyOp3
 70
     1
102
RTVSPropertyOp4
 70
     1
102
RTVSPropertyOp5
 70
     1
102
RTVSPropertyOp6
 70
     1
102
RTVSPropertyOp7
 70
     1
102
RTVSPropertyOp8
 70
     1
102
RTVSPropertyOp9
 70
     1
102
RTVSPropertyOp10
 70
     1
102
RTVSPropertyOp11
 70
     1
102
RTVSPropertyOp12
 70
     1
102
RTVSPropertyOp13
 70
     1
102
RTVSPropertyOp14
 70
     1
102
RTVSPropertyOp15
 70
     1
102
RTVSPropertyOp16
 70
     1
102
RTVSPropertyOp17
 70
     1
102
RTVSPropertyOp18
 70
     1
102
RTVSPropertyOp19
 70
     1
102
RTVSPropertyOp20
 70
     1
102
RTVSPropertyOp21
 70
     1
102
RTVSPropertyOp22
 70
     1
102
RTVSPropertyOp23
 70
     1
102
RTVSPropertyOp24
 70
     1
102
RTVSPropertyOp25
 70
     1
102
RTVSPropertyOp26
 70
     1
102
RTVSPropertyOp27
 70
     1
102
RTVSPropertyOp28
 70
     1
102
RTVSPropertyOp29
 70
     1
102
RTVSPropertyOp30
 70
     1
102
RTVSPropertyOp31
 70
     1
102
RTVSPropertyOp32
 70
     1
102
RTVSPropertyOp33
 70
     1
102
RTVSPropertyOp34
 70
     1
102
RTVSPropertyOp35
 70
     1
102
RTVSPropertyOp36
 70
     1
102
RTVSPropertyOp37
 70
     1
102
RTVSPropertyOp38
 70
     1
102
RTVSPropertyOp39
 70
     1
102
RTVSPropertyOp40
 70
     1
102
RTVSPropertyOp41
 70
     1
102
RTVSPropertyOp42
 70
     1
102
RTVSPropertyOp43
 70
     1
102
RTVSPropertyOp44
 70
     1
102
RTVSPropertyOp45
 70
     1
102
RTVSPropertyOp46
 70
     1
102
RTVSPropertyOp47
 70
     1
102
RTVSPropertyOp48
 70
     1
102
RTVSPropertyOp49
 70
     1
102
RTVSPropertyOp50
 70
     1
102
RTVSPropertyOp51
 70
     0
102
RTVSPropertyOp52
 70
     0
102
RTVSPropertyOp53
 70
     1
102
RTVSPropertyOp54
 70
     1
102
RTVSPropertyOp55
 70
     1
102
RTVSPropertyOp56
 70
     1
102
RTVSPropertyOp57
 70
     1
102
RTVSPropertyOp58
 70
     1
102
RTVSPropertyOp59
 70
     1
102
RTVSPropertyOp60
 70
     1
102
RTVSPropertyOp61
 70
     1
102
RTVSPropertyOp62
 70
     1
  0
XRECORD
  5
99D1
102
{ACAD_REACTORS
330
99D0
102
}
330
99D0
100
AcDbXrecord
280
     1
102
RTVSPost2010Prop28
280
     0
102
RTVSPost2010PropOp28
 70
     1
102
RTVSPost2010Prop29
280
     1
102
RTVSPost2010PropOp29
 70
     1
102
RTVSPost2010Prop30
280
     1
102
RTVSPost2010PropOp30
 70
     1
102
RTVSPost2010Prop31
280
     0
102
RTVSPost2010PropOp31
 70
     1
102
RTVSPost2010Prop32
280
     0
102
RTVSPost2010PropOp32
 70
     1
102
RTVSPost2010Prop33
280
     0
102
RTVSPost2010PropOp33
 70
     1
102
RTVSPost2010Prop34
280
     0
102
RTVSPost2010PropOp34
 70
     1
102
RTVSPost2010Prop35
280
     0
102
RTVSPost2010PropOp35
 70
     1
102
RTVSPost2010Prop36
280
     0
102
RTVSPost2010PropOp36
 70
     1
102
RTVSPost2010Prop37
 90
       50
102
RTVSPost2010PropOp37
 70
     1
102
RTVSPost2010Prop38
140
0.0
102
RTVSPost2010PropOp38
 70
     1
102
RTVSPost2010Prop39
140
1.0
102
RTVSPost2010PropOp39
 70
     1
102
RTVSPost2010Prop40
 90
        0
102
RTVSPost2010PropOp40
 70
     1
102
RTVSPost2010Prop41ColorIndex
 90
       18
102
RTVSPost2010Prop41ColorRGB
 90
        0
102
RTVSPost2010PropOp41
 70
     1
102
RTVSPost2010Prop42
 90
       50
102
RTVSPost2010PropOp42
 70
     1
102
RTVSPost2010Prop43
 90
        3
102
RTVSPost2010PropOp43
 70
     1
102
RTVSPost2010Prop44ColorIndex
 90
        5
102
RTVSPost2010Prop44ColorRGB
 90
      255
102
RTVSPost2010PropOp44
 70
     1
102
RTVSPost2010Prop45
280
     0
102
RTVSPost2010PropOp45
 70
     1
102
RTVSPost2010Prop46
 90
       50
102
RTVSPost2010PropOp46
 70
     1
102
RTVSPost2010Prop47
 90
       50
102
RTVSPost2010PropOp47
 70
     1
102
RTVSPost2010Prop48
 90
       50
102
RTVSPost2010PropOp48
 70
     1
102
RTVSPost2010Prop49
280
     0
102
RTVSPost2010PropOp49
 70
     1
102
RTVSPost2010Prop50
 90
       50
102
RTVSPost2010PropOp50
 70
     1
102
RTVSPost2010Prop51ColorIndex
 90
      256
102
RTVSPost2010Prop51ColorRGB
 90
-16777216
102
RTVSPost2010PropOp51
 70
     0
102
RTVSPost2010Prop52
140
1.0
102
RTVSPost2010PropOp52
 70
     0
102
RTVSPost2010Prop53
 90
        2
102
RTVSPost2010PropOp53
 70
     1
102
RTVSPost2010Prop54
  1
strokes_ogs.tif
102
RTVSPost2010PropOp54
 70
     1
102
RTVSPost2010Prop55
280
     0
102
RTVSPost2010PropOp55
 70
     1
102
RTVSPost2010Prop56
140
1.0
102
RTVSPost2010PropOp56
 70
     1
102
RTVSPost2010Prop57
140
1.0
102
RTVSPost2010PropOp57
 70
     1
102
RTVSPropertyOp0
 70
     1
102
RTVSPropertyOp1
 70
     1
102
RTVSPropertyOp2
 70
     1
102
RTVSPropertyOp3
 70
     1
102
RTVSPropertyOp4
 70
     1
102
RTVSPropertyOp5
 70
     1
102
RTVSPropertyOp6
 70
     1
102
RTVSPropertyOp7
 70
     1
102
RTVSPropertyOp8
 70
     1
102
RTVSPropertyOp9
 70
     1
102
RTVSPropertyOp10
 70
     1
102
RTVSPropertyOp11
 70
     1
102
RTVSPropertyOp12
 70
     1
102
RTVSPropertyOp13
 70
     1
102
RTVSPropertyOp14
 70
     1
102
RTVSPropertyOp15
 70
     1
102
RTVSPropertyOp16
 70
     1
102
RTVSPropertyOp17
 70
     1
102
RTVSPropertyOp18
 70
     1
102
RTVSPropertyOp19
 70
     1
102
RTVSPropertyOp20
 70
     1
102
RTVSPropertyOp21
 70
     1
102
RTVSPropertyOp22
 70
     1
102
RTVSPropertyOp23
 70
     1
102
RTVSPropertyOp24
 70
     1
102
RTVSPropertyOp25
 70
     1
102
RTVSPropertyOp26
 70
     1
102
RTVSPropertyOp27
 70
     1
102
RTVSPropertyOp28
 70
     1
102
RTVSPropertyOp29
 70
     1
102
RTVSPropertyOp30
 70
     1
102
RTVSPropertyOp31
 70
     1
102
RTVSPropertyOp32
 70
     1
102
RTVSPropertyOp33
 70
     1
102
RTVSPropertyOp34
 70
     1
102
RTVSPropertyOp35
 70
     1
102
RTVSPropertyOp36
 70
     1
102
RTVSPropertyOp37
 70
     1
102
RTVSPropertyOp38
 70
     1
102
RTVSPropertyOp39
 70
     1
102
RTVSPropertyOp40
 70
     1
102
RTVSPropertyOp41
 70
     1
102
RTVSPropertyOp42
 70
     1
102
RTVSPropertyOp43
 70
     1
102
RTVSPropertyOp44
 70
     1
102
RTVSPropertyOp45
 70
     1
102
RTVSPropertyOp46
 70
     1
102
RTVSPropertyOp47
 70
     1
102
RTVSPropertyOp48
 70
     1
102
RTVSPropertyOp49
 70
     1
102
RTVSPropertyOp50
 70
     1
102
RTVSPropertyOp51
 70
     0
102
RTVSPropertyOp52
 70
     0
102
RTVSPropertyOp53
 70
     1
102
RTVSPropertyOp54
 70
     1
102
RTVSPropertyOp55
 70
     1
102
RTVSPropertyOp56
 70
     1
102
RTVSPropertyOp57
 70
     1
102
RTVSPropertyOp58
 70
     1
102
RTVSPropertyOp59
 70
     1
102
RTVSPropertyOp60
 70
     1
102
RTVSPropertyOp61
 70
     1
102
RTVSPropertyOp62
 70
     1
  0
ENDSEC
  0
EOF
